<?xml version="1.0" standalone="no"?>
<!DOCTYPE svg PUBLIC "-//W3C//DTD SVG 1.1//EN" "http://www.w3.org/Graphics/SVG/1.1/DTD/svg11.dtd" >
<svg xmlns="http://www.w3.org/2000/svg">
<metadata></metadata>
<defs>
<font id="liberation_sansbold_italic" horiz-adv-x="1139" >
<font-face units-per-em="2048" ascent="1638" descent="-410" />
<missing-glyph horiz-adv-x="569" />
<glyph horiz-adv-x="2048" />
<glyph horiz-adv-x="2048" />
<glyph unicode="&#xd;" horiz-adv-x="569" />
<glyph unicode=" "  horiz-adv-x="569" />
<glyph unicode="&#x09;" horiz-adv-x="569" />
<glyph unicode="&#xa0;" horiz-adv-x="569" />
<glyph unicode="!" horiz-adv-x="682" d="M423 426h-230l160 983h294zM79 0l52 270h288l-52 -270h-288z" />
<glyph unicode="&#x22;" horiz-adv-x="971" d="M864 898h-219l72 511h275zM438 898h-219l72 511h273z" />
<glyph unicode="#" d="M939 862l-69 -332h215v-149h-246l-82 -381h-156l80 381h-307l-80 -381h-153l79 381h-155v149h188l70 332h-207v148h238l84 385h153l-82 -385h307l84 385h156l-84 -385h164v-148h-197zM479 862l-72 -332h309l70 332h-307z" />
<glyph unicode="$" d="M1080 474q0 -111 -38 -194t-110 -139t-177 -85.5t-239 -34.5l-33 -173h-112l32 175q-82 0 -155 22.5t-128.5 66.5t-90 108t-40.5 146l262 42q7 -88 55 -132.5t139 -44.5l73 388q-77 19 -145 50.5t-119 77t-80.5 105.5t-29.5 136t22.5 136t61.5 105t91 76.5t110.5 51 t121 28.5t121.5 9l24 126l110 -4l-27 -130q89 0 157 -23t115.5 -63t73.5 -94.5t32 -116.5l-261 -57q-8 44 -24 74.5t-37 49t-45.5 26.5t-48.5 8l-67 -353q92 -22 166.5 -53t128 -74.5t82.5 -101.5t29 -134zM810 413q0 77 -44 117.5t-139 62.5l-73 -362q50 0 96.5 11t82 33.5 t56.5 57t21 80.5zM412 1006q0 -30 10.5 -51.5t30 -38t48 -29t65.5 -24.5l67 331q-51 0 -92 -14.5t-69.5 -40t-44 -60t-15.5 -73.5z" />
<glyph unicode="%" horiz-adv-x="1821" d="M546 1421q63 0 119 -16t98.5 -52.5t67 -95.5t24.5 -144q0 -37 -6.5 -83.5t-19.5 -94.5q-27 -126 -76.5 -206t-109 -125.5t-121.5 -62.5t-115 -17q-62 0 -116 18t-93.5 56.5t-62.5 98.5t-23 144q0 37 5.5 82.5t18.5 91.5q27 131 74.5 211t104.5 123.5t117.5 57.5t113.5 14 zM545 1270q-30 0 -59 -10t-54.5 -38.5t-47 -80t-37.5 -135.5q-11 -53 -16.5 -97.5t-5.5 -81.5q0 -73 22 -107.5t64 -34.5q30 0 59 10.5t55.5 39t49 79.5t38.5 131q28 109 28 186q0 74 -25 106.5t-71 32.5zM1455 882q63 0 119 -16t98.5 -52.5t67 -95.5t24.5 -144 q0 -37 -6.5 -83.5t-19.5 -94.5q-27 -126 -76.5 -206t-109 -125.5t-121.5 -62.5t-115 -17q-62 0 -116 18t-93.5 56.5t-62.5 98.5t-23 144q0 37 5.5 82.5t18.5 91.5q27 131 74.5 211t104.5 123.5t117.5 57.5t113.5 14zM1454 731q-30 0 -59 -10t-54.5 -38.5t-47 -80 t-37.5 -135.5q-11 -53 -16.5 -97.5t-5.5 -81.5q0 -73 22 -107.5t64 -34.5q30 0 59 10.5t55.5 39t49 79.5t38.5 131q28 109 28 186q0 74 -25 106.5t-71 32.5zM486 0h-197l1086 1409h199z" />
<glyph unicode="&#x26;" horiz-adv-x="1479" d="M49 354q0 87 32 157t89 126t135 99t170 75q-6 19 -12 44t-11 54.5t-8.5 62t-3.5 65.5q0 82 28 151.5t82 120.5t134 79.5t184 28.5q75 0 137 -16t106.5 -48.5t68.5 -80.5t24 -112q0 -85 -38 -149.5t-102.5 -115t-149.5 -90.5t-178 -78q15 -42 31 -83t36.5 -81.5t46 -82 t58.5 -85.5q73 78 129.5 168.5t104.5 196.5l187 -83q-24 -56 -55 -111.5t-66.5 -109t-75 -103t-81.5 -92.5q40 -34 86.5 -49t97.5 -15q30 0 58.5 4t52.5 12l-39 -203q-33 -11 -64.5 -16.5t-74.5 -5.5q-91 0 -166 30t-139 87q-31 -24 -66 -47t-80.5 -40t-107 -27.5 t-145.5 -10.5q-201 0 -308 96.5t-107 277.5zM493 170q34 0 67 6.5t63 18t56 25.5t46 29q-34 45 -64 94.5t-55.5 99t-45.5 97.5t-35 91q-40 -18 -80 -41t-71 -55t-50.5 -75t-19.5 -100q0 -43 14 -78.5t38.5 -60t59.5 -38t77 -13.5zM667 1041q0 -44 5 -78.5t15 -66.5 q63 24 117 47t93 51t61 64t22 84q0 51 -33.5 78t-91.5 27q-39 0 -73.5 -13t-60 -38.5t-40 -64.5t-14.5 -90z" />
<glyph unicode="'" horiz-adv-x="487" d="M417 898h-219l73 511h272z" />
<glyph unicode="(" horiz-adv-x="682" d="M874 1484q-258 -246 -391 -544.5t-133 -659.5q0 -195 36 -372t111 -333h-275q-73 156 -110.5 338t-37.5 383q0 179 32.5 345t97.5 316.5t162.5 283t226.5 243.5h281z" />
<glyph unicode=")" horiz-adv-x="682" d="M-180 -425q258 252 391.5 558t133.5 676q0 79 -9.5 166.5t-28.5 176t-47 173.5t-64 159h265q75 -149 118 -324t43 -367q0 -183 -32.5 -353t-98 -324.5t-163 -290.5t-227.5 -250h-281z" />
<glyph unicode="*" horiz-adv-x="797" d="M574 1135l235 104l68 -197l-250 -61l186 -213l-184 -121l-146 252l-149 -252l-186 123l190 211l-250 61l68 197l239 -104l-18 274h215z" />
<glyph unicode="+" horiz-adv-x="1196" d="M750 569v-408h-226v408h-399v224h399v408h226v-408h402v-224h-402z" />
<glyph unicode="," horiz-adv-x="569" d="M347 66q-13 -67 -31 -122t-41 -101.5t-50.5 -85.5t-59.5 -74h-185q35 35 67 74t58 80t44 82t26 81h-129l59 305h289z" />
<glyph unicode="-" horiz-adv-x="682" d="M56 409l47 244h520l-47 -244h-520z" />
<glyph unicode="." horiz-adv-x="569" d="M46 0l59 305h289l-59 -305h-289z" />
<glyph unicode="/" horiz-adv-x="569" d="M-76 -41l587 1525h238l-583 -1525h-242z" />
<glyph unicode="0" d="M724 1430q83 0 155 -22.5t125 -76.5t84 -143.5t31 -223.5q0 -63 -9.5 -135t-28.5 -164q-28 -133 -66 -236t-84.5 -179t-99.5 -127.5t-111 -83.5t-119 -45.5t-123 -13.5q-94 0 -167 26.5t-123.5 84t-76.5 147.5t-26 216q0 61 8.5 131t25.5 161q27 141 66 247t86.5 182 t102 125.5t112.5 78t118.5 40t119.5 11.5zM497 201q55 0 100.5 23.5t83.5 79.5t69 149t56 232q17 94 28.5 163.5t11.5 128.5q0 110 -36.5 171.5t-115.5 61.5q-60 0 -105 -23.5t-80 -79t-62 -148.5t-51 -233q-15 -87 -26.5 -169.5t-11.5 -141.5q0 -45 6.5 -84.5t22.5 -68 t43 -45t67 -16.5z" />
<glyph unicode="1" d="M33 0l43 231h349l179 921l-381 -214l47 242l396 229h270l-230 -1178h323l-44 -231h-952z" />
<glyph unicode="2" d="M-32 0l37 195q48 83 109 151.5t128 126.5t136.5 108t135 96t123 89.5t100 90t67.5 97t25 109.5q0 40 -12 67.5t-33.5 44t-51.5 24t-65 7.5q-39 0 -73 -9t-62.5 -30t-50.5 -56.5t-37 -88.5l-266 59q24 81 65 145.5t103 109.5t146.5 69.5t194.5 24.5q113 0 194 -24.5 t134 -69.5t78 -109t25 -144q0 -78 -25 -144t-68 -123t-99.5 -107t-120 -96t-129.5 -90.5t-127.5 -90.5t-114.5 -95.5t-91 -105.5h654l-44 -231h-985z" />
<glyph unicode="3" d="M535 829q47 0 99.5 8t96 32t72 67.5t28.5 114.5q0 72 -38.5 113.5t-118.5 41.5q-91 0 -151 -45t-86 -139l-267 52q27 94 74 161.5t112 110.5t147.5 63.5t181.5 20.5q102 0 182 -23.5t135.5 -68t84.5 -108t29 -144.5q0 -76 -24 -139t-70.5 -109.5t-113.5 -75.5t-153 -37 l-1 -4q63 -10 114 -33.5t87 -61.5t55.5 -90t19.5 -118q0 -87 -34 -166.5t-99.5 -140t-162.5 -96t-223 -35.5q-124 0 -214.5 27t-150.5 75.5t-91.5 115t-38.5 145.5l282 38q6 -50 23.5 -83.5t46 -54t68 -29t88.5 -8.5q56 0 97.5 16t69 44t41 66.5t13.5 83.5q0 93 -54 139.5 t-166 46.5h-107l44 227h73z" />
<glyph unicode="4" d="M874 286l-54 -286h-268l54 286h-640l41 207l717 916h370l-178 -913h188l-42 -210h-188zM750 1020q3 15 9 40t13.5 52.5t15 53t12.5 40.5q-7 -12 -21 -33.5t-30.5 -46t-34 -48.5t-31.5 -42l-424 -540h389z" />
<glyph unicode="5" d="M316 1409h847l-43 -231h-594l-87 -334q18 16 42.5 32t55.5 29t70 21t87 8q78 0 145.5 -27t117.5 -80t78.5 -130.5t28.5 -178.5q0 -119 -39 -218t-113 -170t-181.5 -110.5t-244.5 -39.5q-112 0 -194 26.5t-138.5 73t-89 110.5t-44.5 139l283 45q8 -42 22 -73.5t38 -52.5 t60 -31.5t87 -10.5q67 0 117.5 22t84 60.5t50 89.5t16.5 108q0 58 -14.5 100t-40 69t-60 39.5t-74.5 12.5q-65 0 -114 -23t-88 -68h-274z" />
<glyph unicode="6" d="M533 -20q-107 0 -188.5 34.5t-137 100t-84 159.5t-28.5 213q0 204 47.5 376.5t133 298.5t205.5 197t264 71q69 0 137 -15t124 -52t94.5 -99.5t49.5 -157.5l-266 -41q-14 73 -51 108t-103 35q-115 0 -200 -115t-124 -347q53 72 134.5 116.5t184.5 44.5q79 0 144 -24.5 t111.5 -72t72 -117t25.5 -160.5q0 -111 -38.5 -211t-109.5 -176t-171.5 -121t-225.5 -45zM369 429q0 -105 49 -167t140 -62q51 0 94 20t74 58.5t48.5 94t17.5 126.5q0 52 -13.5 90t-37.5 62.5t-56.5 36.5t-70.5 12q-45 0 -89 -17t-78.5 -50.5t-56 -84.5t-21.5 -119z" />
<glyph unicode="7" d="M188 1409h1031l-44 -223q-84 -102 -162 -194t-147.5 -181.5t-130 -179.5t-110.5 -188t-88.5 -207t-64.5 -236h-298q35 182 103.5 335.5t162 293.5t209 273.5t244.5 275.5h-750z" />
<glyph unicode="8" d="M707 1429q101 0 180.5 -24t134.5 -68t84.5 -106.5t29.5 -139.5q0 -67 -21.5 -126.5t-62 -105t-99.5 -76t-133 -40.5l-1 -4q51 -15 93.5 -42t72.5 -65.5t47 -88.5t17 -111q0 -97 -35 -179.5t-104.5 -143t-173.5 -95t-243 -34.5q-119 0 -207 28.5t-145.5 79.5t-85.5 120.5 t-28 151.5q0 93 33.5 158.5t86 110t116 70.5t123.5 38v4q-92 41 -139.5 121.5t-47.5 189.5q0 87 34.5 157t100 118.5t160 75t213.5 26.5zM648 840q60 0 99 21.5t62.5 54.5t32.5 72.5t9 75.5q0 80 -42 124t-130 44q-43 0 -80 -12.5t-64.5 -38.5t-43 -66t-15.5 -95 q0 -32 8 -64.5t27.5 -58t52.5 -41.5t84 -16zM561 640q-60 0 -105.5 -19t-76 -53.5t-46.5 -83t-16 -107.5q0 -43 12 -79.5t37 -63t63.5 -41.5t90.5 -15q50 0 93.5 17t76 50.5t51.5 83t19 115.5q0 37 -9.5 72t-33 62.5t-61.5 44.5t-95 17z" />
<glyph unicode="9" d="M817 653q-31 -37 -64.5 -65t-71.5 -47t-82.5 -28.5t-98.5 -9.5q-82 0 -147.5 28.5t-111 80t-70 123.5t-24.5 158q0 113 40.5 211t112.5 170.5t172 114t220 41.5q95 0 175 -31t138.5 -91.5t91.5 -148.5t33 -202q0 -27 -2 -61t-5.5 -70.5t-9 -74.5t-12.5 -72 q-38 -188 -102 -321t-145.5 -217t-177 -122.5t-197.5 -38.5q-85 0 -158 20t-129 61.5t-93 103.5t-51 146l274 48q14 -75 56 -116t120 -41q44 0 89.5 19.5t88 70t79 138t62.5 223.5zM855 1009q0 42 -12.5 78.5t-36 64t-56 43t-72.5 15.5q-54 0 -99 -20t-77.5 -59.5t-51 -97.5 t-18.5 -133q0 -45 13.5 -80.5t37 -60t56.5 -37t72 -12.5q38 0 75.5 10.5t69.5 35.5t56 65t35 99q4 24 6 46t2 43z" />
<glyph unicode=":" horiz-adv-x="682" d="M235 752l55 282h288l-55 -282h-288zM89 0l55 281h288l-55 -281h-288z" />
<glyph unicode=";" horiz-adv-x="682" d="M235 752l55 282h288l-55 -282h-288zM390 66q-13 -67 -31 -122t-41 -101.5t-51 -85.5t-60 -74h-184q35 35 67 74t58 80t44 82t26 81h-129l55 281h288z" />
<glyph unicode="&#x3c;" horiz-adv-x="1196" d="M124 516v322l1027 391v-228l-833 -325l833 -324v-227z" />
<glyph unicode="=" horiz-adv-x="1196" d="M123 842v223h1027v-223h-1027zM123 291v221h1027v-221h-1027z" />
<glyph unicode="&#x3e;" horiz-adv-x="1196" d="M124 125v227l832 324l-832 325v228l1027 -391v-322z" />
<glyph unicode="?" horiz-adv-x="1251" d="M745 1430q104 0 189.5 -23.5t146.5 -68.5t94.5 -111t33.5 -152t-32.5 -151.5t-85 -117.5t-118 -93t-132.5 -78q-34 -22 -64 -43t-53 -45t-38 -53t-20 -68h-267q13 70 38.5 121.5t62 92t84.5 74.5t106 70q69 43 114.5 76t72.5 63.5t38 61.5t11 70q0 63 -48 104.5 t-149 41.5q-110 0 -181 -46.5t-98 -146.5l-266 40q27 88 73 158.5t115 120t161.5 76.5t211.5 27zM309 0l52 270h289l-52 -270h-289z" />
<glyph unicode="@" horiz-adv-x="1997" d="M1911 755q0 -144 -38 -263.5t-103.5 -205.5t-153 -134t-186.5 -48q-42 0 -77.5 10.5t-60.5 32t-39 54t-14 75.5q0 14 1.5 33t4.5 34h-6q-21 -44 -56 -87t-80.5 -76.5t-100 -54.5t-113.5 -21q-95 0 -158.5 34t-101.5 89t-54 124t-16 138q0 115 34 225t98 196t157 138.5 t211 52.5q102 0 167 -46.5t97 -127.5h6l39 152h156l-117 -506q-17 -79 -27 -141t-10 -99q0 -50 23.5 -71t54.5 -21q59 0 114.5 38t99.5 106t70.5 162t26.5 206q0 126 -41 234t-121 187t-198 124t-272 45q-133 0 -245 -31.5t-202.5 -88.5t-159 -136t-115 -173.5t-70 -201.5 t-23.5 -221q0 -87 17 -168.5t51.5 -152.5t87 -130t123.5 -101t161.5 -65.5t200.5 -23.5q86 0 166 12t153.5 33t141 49.5t128.5 60.5l62 -122q-60 -34 -129 -66t-150 -56.5t-175 -39.5t-204 -15q-130 0 -240 28.5t-198.5 80t-155.5 123.5t-112 159t-67.5 187t-22.5 207 q0 139 31.5 267t91 238t145 200t194 154t238 99t275.5 35q203 0 351.5 -59t245 -159t143 -232t46.5 -279zM1264 751q0 47 -15.5 86.5t-43.5 68t-67 44.5t-87 16q-55 0 -101 -20.5t-82 -55.5t-63 -81.5t-44.5 -99.5t-26.5 -109t-9 -109q0 -114 48.5 -180t148.5 -66 q48 0 95.5 23t89.5 67.5t76.5 110t55.5 149.5q5 18 9.5 39.5t8 42.5t5.5 40t2 34z" />
<glyph unicode="A" horiz-adv-x="1479" d="M1039 0l-55 360h-537l-195 -360h-294l787 1409h348l238 -1409h-292zM894 1034l-5 37.5t-6 46t-5 44t-2 30.5q-4 -12 -14.5 -36.5t-24 -54.5t-29.5 -62t-30 -59l-212 -398h395z" />
<glyph unicode="B" horiz-adv-x="1479" d="M310 1409h584q131 0 226.5 -22t158.5 -64t93.5 -102.5t30.5 -137.5q0 -73 -23 -130.5t-65.5 -100t-102.5 -71t-133 -43.5q71 -12 125 -40t90.5 -68.5t55 -91t18.5 -107.5q0 -125 -50.5 -208t-136 -132.5t-199.5 -70t-241 -20.5h-705zM494 841h294q87 0 148.5 11t100 35 t56 61.5t17.5 89.5q0 44 -16.5 73.5t-48 47t-78 24.5t-105.5 7h-301zM373 219h328q95 0 165 10t115.5 35t68 67t22.5 106q0 90 -68 138t-222 48h-330z" />
<glyph unicode="C" horiz-adv-x="1479" d="M401 573q0 -84 21 -151t62.5 -114t103 -72t143.5 -25q78 0 142 21t115.5 57t91 82.5t69.5 97.5l227 -117q-43 -76 -103 -144t-141 -118.5t-185 -80t-236 -29.5q-157 0 -272.5 46t-190.5 125.5t-111.5 187t-36.5 230.5q0 124 26 236t75.5 207.5t121.5 173t164 131.5 t202.5 83.5t237.5 29.5q137 0 236.5 -32t168.5 -86t110 -125t61 -149l-274 -71q-12 44 -36.5 85.5t-62.5 74t-91 52t-121 19.5q-126 0 -222.5 -45.5t-162 -128t-99 -197.5t-33.5 -254z" />
<glyph unicode="D" horiz-adv-x="1479" d="M734 1409q163 0 290.5 -38t215.5 -113.5t134.5 -188t46.5 -262.5q0 -133 -30.5 -244.5t-85 -201t-130 -157t-165 -113t-190.5 -68.5t-206 -23h-578l274 1409h424zM375 228h230q116 0 215 37t171 108.5t113 177t41 243.5q0 98 -28 170.5t-80.5 120.5t-128.5 72t-172 24 h-176z" />
<glyph unicode="E" horiz-adv-x="1366" d="M36 0l273 1409h1108l-44 -228h-813l-69 -354h752l-44 -228h-752l-72 -371h854l-45 -228h-1148z" />
<glyph unicode="F" horiz-adv-x="1251" d="M560 1181l-85 -436h668l-44 -228h-668l-101 -517h-294l273 1409h986l-44 -228h-691z" />
<glyph unicode="G" horiz-adv-x="1593" d="M1400 175q-67 -46 -137.5 -82.5t-150.5 -61t-171.5 -37.5t-200.5 -13q-162 0 -282.5 45.5t-200 125.5t-118.5 190.5t-39 240.5q0 188 59 344t168.5 268t265.5 173.5t349 61.5q131 0 231 -32t172 -86t117.5 -124.5t67.5 -148.5l-282 -78q-12 46 -36.5 89t-63.5 76 t-94 52.5t-128 19.5q-127 0 -225.5 -46t-165.5 -127t-101.5 -192t-34.5 -241q0 -77 20.5 -146t64.5 -121.5t113.5 -83t166.5 -30.5q62 0 118 8t105 21.5t89.5 30.5t71.5 36l46 228h-342l39 208h614z" />
<glyph unicode="H" horiz-adv-x="1479" d="M956 0l118 604h-626l-118 -604h-294l273 1409h295l-109 -561h626l109 561h284l-274 -1409h-284z" />
<glyph unicode="I" horiz-adv-x="569" d="M36 0l273 1409h295l-274 -1409h-294z" />
<glyph unicode="J" d="M480 -20q-105 0 -183 28t-133 79.5t-88.5 125.5t-50.5 166l267 58q10 -49 26.5 -90.5t41 -71.5t59 -47t80.5 -17q50 0 83 19t55 50.5t34.5 73t21.5 86.5l143 738h-281l44 231h575l-193 -986q-21 -109 -59 -191.5t-98 -138.5t-144.5 -84.5t-199.5 -28.5z" />
<glyph unicode="K" horiz-adv-x="1479" d="M995 0l-355 640l-211 -123l-101 -517h-292l273 1409h295l-130 -639l760 639h369l-747 -616l465 -793h-326z" />
<glyph unicode="L" horiz-adv-x="1251" d="M36 0l273 1409h295l-229 -1181h756l-45 -228h-1050z" />
<glyph unicode="M" horiz-adv-x="1706" d="M1206 0l172 884q11 55 24 111.5t24 103.5q13 55 26 107q-36 -78 -69 -151q-14 -31 -29.5 -64t-30.5 -64.5t-28.5 -60t-25.5 -50.5l-412 -816h-210l-94 819q-2 19 -5 45.5t-6.5 57.5t-7 64t-6.5 64q-7 74 -15 156q-7 -61 -14 -120q-3 -25 -6.5 -52t-7 -53t-7.5 -50t-8 -44 l-172 -887h-262l274 1409h395l88 -788q4 -31 8 -77.5t8 -91.5q4 -52 9 -107q25 55 49 106q20 44 42.5 89.5t37.5 75.5l402 793h393l-274 -1409h-262z" />
<glyph unicode="N" horiz-adv-x="1479" d="M884 0l-374 1131q-6 -43 -12 -85q-5 -36 -12 -77.5t-14 -76.5l-174 -892h-262l274 1409h350l377 -1141q6 39 12 82q5 37 12.5 82.5t16.5 91.5l174 885h262l-274 -1409h-356z" />
<glyph unicode="O" horiz-adv-x="1593" d="M928 1430q148 0 265 -40.5t198.5 -116t124.5 -182.5t43 -240q0 -49 -5 -101.5t-15 -100.5q-31 -154 -101.5 -277.5t-174.5 -210.5t-239.5 -134t-296.5 -47q-153 0 -270 43.5t-196.5 122t-120 187.5t-40.5 240q0 46 4.5 94t14.5 97q31 150 100 273t172 210.5t238.5 135 t298.5 47.5zM914 1197q-107 0 -191 -32t-145.5 -92t-102.5 -147.5t-62 -198.5q-7 -37 -10 -74.5t-3 -71.5q0 -184 90 -276.5t251 -92.5q108 0 192 32.5t146 93.5t102.5 147.5t61.5 194.5q7 36 9.5 77t2.5 70q0 93 -24 162t-68 115.5t-107.5 69.5t-141.5 23z" />
<glyph unicode="P" horiz-adv-x="1366" d="M850 1409q124 0 220.5 -29t163 -84t101 -133t34.5 -176q0 -114 -40.5 -205t-114.5 -154.5t-178 -97.5t-231 -34h-377l-98 -496h-294l273 1409h541zM471 723h289q155 0 232.5 58t77.5 190q0 55 -18 94.5t-51 65t-78.5 37.5t-100.5 12h-262z" />
<glyph unicode="Q" horiz-adv-x="1593" d="M928 1430q148 0 265 -40.5t198.5 -116t124.5 -182.5t43 -240q0 -49 -5 -101.5t-15 -100.5q-27 -135 -84.5 -246.5t-141.5 -196t-192.5 -139t-238.5 -75.5q19 -98 64.5 -142t134.5 -44q17 0 37 1t40 3t39 4.5t34 5.5l-45 -195q-29 -10 -74.5 -17.5t-94.5 -7.5 q-111 0 -189 28t-129 79.5t-78 123.5t-37 160q-118 19 -208.5 69.5t-152 126t-92.5 173.5t-31 213q0 46 4.5 94t14.5 97q31 150 100 273t172 210.5t238.5 135t298.5 47.5zM914 1197q-107 0 -191 -32t-145.5 -92t-102.5 -147.5t-62 -198.5q-7 -37 -10 -74.5t-3 -71.5 q0 -184 90 -276.5t251 -92.5q108 0 192 32.5t146 93.5t102.5 147.5t61.5 194.5q7 36 9.5 77t2.5 70q0 93 -24 162t-68 115.5t-107.5 69.5t-141.5 23z" />
<glyph unicode="R" horiz-adv-x="1479" d="M1010 0l-230 534h-346l-103 -534h-295l274 1409h651q135 0 231 -33t156.5 -88.5t88.5 -128.5t28 -153q0 -94 -33.5 -167.5t-89 -126.5t-128.5 -85t-152 -44l274 -583h-326zM872 764q67 0 121 13t92.5 41t59.5 70.5t21 100.5q0 52 -19 88.5t-52 59t-77 33t-94 10.5h-364 l-81 -416h393z" />
<glyph unicode="S" horiz-adv-x="1366" d="M600 -20q-135 0 -237 24t-172.5 72.5t-111 120.5t-54.5 168l289 49q10 -54 32 -94t59 -66.5t90 -39.5t125 -13q76 0 139.5 10t109 33.5t71 61.5t25.5 94q0 47 -19 80t-56.5 57t-93 43t-129.5 38q-94 25 -176.5 56t-144 78.5t-97.5 116t-36 168.5q0 95 45 168.5 t122.5 123.5t182 75.5t223.5 25.5q129 0 226.5 -24.5t166.5 -69t110 -107t56 -138.5l-288 -67q-22 90 -95.5 143.5t-191.5 53.5q-66 0 -115.5 -13t-83 -36t-50.5 -55t-17 -70q0 -45 22.5 -75.5t62 -52.5t94.5 -39t121 -35q51 -14 104.5 -30.5t103.5 -39t94 -53t77 -73 t52 -98t19 -128.5q0 -105 -40 -187t-121 -139t-204 -87t-289 -30z" />
<glyph unicode="T" horiz-adv-x="1251" d="M895 1181l-230 -1181h-295l230 1181h-455l44 228h1206l-44 -228h-456z" />
<glyph unicode="U" horiz-adv-x="1479" d="M688 211q79 0 140 17t106.5 56t75.5 102t48 155l168 868h295l-171 -879q-28 -142 -83 -245.5t-138.5 -171t-197 -100.5t-259.5 -33q-129 0 -232 29.5t-174 86.5t-109 141.5t-38 193.5q0 21 2 48.5t5.5 55.5t7.5 54.5t8 45.5l148 774h295l-153 -810q-7 -34 -12.5 -81.5 t-5.5 -90.5q0 -54 20 -94.5t56.5 -67.5t87 -40.5t110.5 -13.5z" />
<glyph unicode="V" horiz-adv-x="1366" d="M737 0h-339l-227 1409h305l114 -905q5 -45 9 -92t7 -86q4 -46 6 -88q18 41 38 86q17 38 39.5 85.5t46.5 94.5l465 905h308z" />
<glyph unicode="W" horiz-adv-x="1933" d="M1441 0h-350l-27 812q0 11 -1 46.5t-2 80.5t-1.5 93t-0.5 84q-22 -59 -43 -115q-9 -24 -19 -49.5t-19.5 -50t-18.5 -46.5t-17 -40l-348 -815h-355l-89 1409h280l36 -815q2 -48 3.5 -107.5t2.5 -113.5q1 -62 1 -125q29 74 57 144q12 30 25 62t26 63t24.5 59.5t21.5 51.5 l334 781h316l32 -895q2 -42 3.5 -88t3.5 -86q2 -47 3 -92q21 57 44 117q20 51 44 112t47 118l334 814h291z" />
<glyph unicode="X" horiz-adv-x="1366" d="M220 1409h309l224 -471l402 471h313l-600 -677l367 -732h-307l-253 532l-455 -532h-314l652 736z" />
<glyph unicode="Y" horiz-adv-x="1366" d="M836 578l-112 -578h-294l112 578l-370 831h292l259 -605l474 605h323z" />
<glyph unicode="Z" horiz-adv-x="1251" d="M1082 0h-1130l40 209l927 969h-663l45 231h1014l-40 -205l-930 -973h782z" />
<glyph unicode="[" horiz-adv-x="682" d="M-54 -425l370 1909h542l-37 -190h-276l-297 -1528h276l-37 -191h-541z" />
<glyph unicode="\" horiz-adv-x="569" d="M289 -41l-178 1526h238l183 -1526h-243z" />
<glyph unicode="]" horiz-adv-x="682" d="M-174 -425l37 191h277l297 1528h-278l37 190h542l-371 -1909h-541z" />
<glyph unicode="^" horiz-adv-x="1196" d="M962 514l-326 752l-324 -752h-227l391 895h322l393 -895h-229z" />
<glyph unicode="_" d="M-120 -250v78h1177v-78h-1177z" />
<glyph unicode="`" horiz-adv-x="682" d="M596 1183l-307 276l8 43h258l195 -288l-6 -31h-148z" />
<glyph unicode="a" d="M1065 12q-42 -16 -85 -19t-88 -3q-100 0 -154 42t-54 111q0 15 1 31.5t4 32.5h-6q-34 -53 -69 -95t-77.5 -71.5t-95.5 -45t-124 -15.5q-78 0 -135.5 25t-95.5 66.5t-57 95.5t-19 111q0 81 22.5 140t61.5 101t91.5 68.5t112.5 41.5t125 21t128 7l191 3l8 36q7 30 10 52.5 t3 42.5q0 66 -34 97t-93 31q-29 0 -60 -4t-58.5 -18.5t-50 -43t-34.5 -76.5l-263 31q16 67 52 121t94 92.5t138.5 59.5t186.5 21q207 0 303.5 -73t96.5 -222q0 -31 -8 -74t-16 -83l-71 -353q-3 -17 -5.5 -36.5t-2.5 -35.5q0 -24 10 -37t23 -19t26 -7.5t20 -1.5q14 0 26.5 1 t35.5 6zM711 503h-162q-117 -2 -184.5 -48t-67.5 -130q0 -39 12 -67.5t32 -46.5t46.5 -26.5t55.5 -8.5t64.5 11.5t70 38.5t64.5 72.5t47 112.5z" />
<glyph unicode="b" horiz-adv-x="1251" d="M855 1102q81 0 144 -25t105.5 -71t65 -111.5t22.5 -146.5v-14q0 -48 -5 -104t-16 -114q-28 -142 -72 -243.5t-106.5 -166.5t-143 -95.5t-180.5 -30.5q-125 0 -203 52t-110 146h-2q-6 -26 -13.5 -55.5t-15 -55.5t-12.5 -44.5t-7 -22.5h-271q3 9 8 30.5t11.5 51.5t14.5 66 t15 75l246 1261h281l-84 -427q-13 -66 -22 -105t-10 -39h4q56 84 145.5 136.5t210.5 52.5zM735 907q-52 0 -100 -16.5t-88 -56.5t-71.5 -108t-51.5 -172q-8 -44 -12.5 -82t-4.5 -71q0 -56 14.5 -98.5t41 -71.5t63.5 -43.5t82 -14.5q51 0 91.5 15.5t73 54t58 105t46.5 168.5 q11 51 16.5 95.5t5.5 82.5q0 105 -35.5 159t-128.5 54z" />
<glyph unicode="c" d="M536 173q83 0 137 52.5t86 155.5l271 -50q-24 -79 -65.5 -144t-103 -111t-146 -71t-195.5 -25q-116 0 -202 31t-142.5 87.5t-84.5 134.5t-28 172q0 40 3.5 87t14.5 92q25 111 63.5 192.5t86 139t102.5 94t113 57t117.5 28t116.5 7.5q107 0 185 -29t130.5 -78.5t80 -115 t33.5 -138.5l-284 -23q-5 90 -45.5 140.5t-121.5 50.5q-56 0 -97.5 -18.5t-73.5 -59t-57.5 -104t-48.5 -152.5q-4 -20 -8 -42.5t-7.5 -45t-5.5 -43t-2 -37.5q0 -121 45 -177.5t133 -56.5z" />
<glyph unicode="d" horiz-adv-x="1251" d="M749 160q-36 -47 -74 -81t-80.5 -56.5t-92.5 -33t-110 -10.5q-80 0 -142.5 28t-105 78t-64.5 119t-22 150q0 45 4.5 97t16.5 115q28 142 76.5 243.5t113 166.5t143.5 95.5t168 30.5q73 0 126.5 -15.5t91 -42.5t61 -63t35.5 -77h5q2 20 8 60t18 102l84 418h277l-238 -1253 q-11 -61 -18 -119t-11 -112h-281q0 8 0.5 24t2.5 38t5 47t7 51h-4zM515 172q53 0 100.5 16.5t87.5 57t71 109t51 172.5q8 44 12.5 82.5t4.5 71.5q0 120 -47 174.5t-141 54.5q-47 0 -90 -16t-79 -55.5t-65 -106t-47 -167.5q-9 -51 -13.5 -92.5t-4.5 -79.5q0 -106 38 -163.5 t122 -57.5z" />
<glyph unicode="e" d="M358 476q-4 -22 -5.5 -44t-1.5 -45q0 -106 46.5 -162.5t137.5 -56.5q42 0 75 13t59 35.5t45.5 53.5t33.5 67l245 -74q-30 -64 -68 -116.5t-93 -89.5t-132 -57t-184 -20q-110 0 -194.5 31t-142 88t-87 138t-29.5 181q0 164 43.5 291t121 214.5t184.5 133t234 45.5 q112 0 194 -30t136 -84.5t80 -130t26 -166.5q0 -45 -6.5 -103.5t-17.5 -111.5h-700zM822 663q2 16 2.5 29t0.5 27q0 107 -49.5 156t-129.5 49q-34 0 -72 -11t-73.5 -40.5t-64 -80t-45.5 -129.5h431z" />
<glyph unicode="f" horiz-adv-x="682" d="M528 892l-174 -892h-280l174 892h-158l37 190h158l22 113q13 68 39.5 122t73 91t114.5 56.5t164 19.5q45 0 85.5 -5.5t69.5 -11.5l-36 -181q-9 2 -21.5 3.5t-26 3t-26.5 2.5t-22 1q-67 0 -97 -32t-43 -97l-16 -85h213l-37 -190h-213z" />
<glyph unicode="g" horiz-adv-x="1251" d="M431 -425q-105 0 -182 18.5t-130 54.5t-83.5 88.5t-42.5 121.5l283 30q14 -66 61 -96.5t127 -30.5q58 0 101 15.5t74.5 48t53 83t37.5 119.5q6 29 11.5 59.5t10.5 56.5q5 30 9 58h-2q-28 -40 -59.5 -78t-73 -67t-95.5 -46.5t-126 -17.5q-79 0 -142.5 27t-107 75t-67 115 t-23.5 147q0 49 4.5 105t16.5 119q51 261 171.5 391t328.5 130q57 0 108.5 -14t92.5 -40.5t70.5 -65t43.5 -88.5h2q5 26 12.5 57t14.5 59.5t13 49t8 23.5h265q-2 -9 -7 -31t-12 -52.5t-14.5 -68l-15.5 -77.5l-165 -843q-22 -108 -63 -189.5t-108.5 -136t-165.5 -82 t-234 -27.5zM833 548q7 35 10 73t3 65q0 57 -15 98.5t-41.5 69.5t-63 41.5t-78.5 13.5q-51 0 -92.5 -15.5t-74 -53t-57.5 -101t-43 -158.5q-9 -50 -15.5 -99t-6.5 -86q0 -103 44.5 -151t128.5 -48q44 0 90 19.5t87 62t73.5 109t50.5 160.5z" />
<glyph unicode="h" horiz-adv-x="1251" d="M601 1484l-79 -405q-4 -21 -9 -45.5t-10.5 -48.5t-10.5 -47t-9 -41h3q30 42 66.5 79t81.5 65t100.5 44t124.5 16q152 0 229 -73t77 -211q0 -18 -2.5 -41t-5.5 -45.5t-6.5 -43t-6.5 -34.5l-127 -653h-279l118 595q4 19 8.5 42t8.5 46t6.5 43.5t2.5 33.5q0 63 -38.5 96 t-113.5 33q-47 0 -94 -20t-87.5 -57t-71 -89.5t-42.5 -116.5l-118 -606h-282l286 1484h280z" />
<glyph unicode="i" horiz-adv-x="569" d="M282 1277l41 207h281l-41 -207h-281zM35 0l210 1082h281l-211 -1082h-280z" />
<glyph unicode="j" horiz-adv-x="569" d="M283 1277l40 207h281l-40 -207h-281zM-54 -425q-50 0 -93 5.5t-73 13.5l36 188q13 -2 29.5 -3t28.5 -1q34 0 58 8t41 27t28.5 50t20.5 77l223 1142h281l-236 -1210q-13 -65 -39.5 -119t-68.5 -94t-100.5 -62t-135.5 -22z" />
<glyph unicode="k" d="M728 0l-188 497l-140 -75l-85 -422h-280l288 1484h281l-167 -850l465 448h322l-473 -422l275 -660h-298z" />
<glyph unicode="l" horiz-adv-x="569" d="M35 0l288 1484h281l-289 -1484h-280z" />
<glyph unicode="m" horiz-adv-x="1821" d="M1322 892q-45 0 -85.5 -20t-73 -57.5t-56 -90t-36.5 -117.5l-119 -607h-279l123 635q3 16 6 34.5t5.5 37.5t4 35.5t1.5 28.5q0 121 -126 121q-46 0 -86 -20.5t-73 -58t-56.5 -91t-36.5 -118.5l-118 -604h-282l166 851q7 34 13.5 71.5t12 71t9 57.5t4.5 31h272 q0 -5 -3 -27t-7.5 -50.5t-9 -58t-8.5 -49.5h3q31 47 63.5 85t71 64.5t86 40.5t107.5 14q124 0 196 -59.5t86 -172.5q32 50 67 92t77 73.5t93.5 49t116.5 17.5q138 0 211.5 -73t73.5 -211q0 -36 -6.5 -81t-14.5 -83l-128 -653h-279l122 627q3 15 6 33.5l6 37t4.5 36.5t1.5 32 v5q-3 121 -126 121z" />
<glyph unicode="n" horiz-adv-x="1251" d="M738 0l118 595q4 19 8.5 42t8.5 46t6.5 43.5t2.5 33.5q0 63 -38 96t-114 33q-47 0 -94 -20t-87.5 -57t-71 -89.5t-42.5 -116.5l-118 -606h-282l166 851q7 34 13.5 71.5t11.5 71t8.5 57.5t4.5 31h268q0 -5 -2.5 -27t-6 -50.5t-7.5 -58t-8 -49.5h3q30 42 66.5 79t81.5 65 t100.5 44t124.5 16q152 0 229 -73t77 -211q0 -18 -2.5 -41t-5.5 -45.5t-6.5 -43t-6.5 -34.5l-127 -653h-279z" />
<glyph unicode="o" horiz-adv-x="1251" d="M1185 683q0 -163 -49 -293.5t-136 -221.5t-206 -139.5t-259 -48.5q-107 0 -194 29.5t-149 86t-95.5 138t-33.5 185.5q0 155 46.5 281t131.5 215t203 137.5t260 48.5q118 0 208 -28t150.5 -82t91.5 -131.5t31 -176.5zM891 662q0 66 -14.5 113t-41.5 76.5t-65.5 43.5 t-86.5 14q-44 0 -89 -10.5t-85.5 -43.5t-74 -94t-56.5 -161q-11 -48 -15.5 -90.5t-4.5 -78.5q0 -72 15.5 -121t43.5 -80t66 -44.5t83 -13.5t89 10t84 42.5t73 93t56 162.5q11 52 16 95.5t7 86.5z" />
<glyph unicode="p" horiz-adv-x="1251" d="M728 907q-52 0 -100 -16.5t-88 -56.5t-71.5 -108t-51.5 -172q-8 -44 -12.5 -82t-4.5 -71q0 -56 14.5 -98.5t41 -71.5t63.5 -43.5t82 -14.5q51 0 92.5 16t74.5 55t58.5 105.5t43.5 166.5q9 51 14 95.5t5 82.5q0 106 -38.5 159.5t-122.5 53.5zM493 913q35 49 72 84.5t80 59 t93 34.5t110 11q81 0 144 -25t105.5 -71t65 -111.5t22.5 -146.5q0 -59 -5 -116.5t-16 -115.5q-28 -142 -72 -243.5t-106.5 -166.5t-143 -95.5t-180.5 -30.5q-125 0 -203 52t-110 146h-2q-5 -42 -14 -92t-18 -96l-80 -415h-280l243 1258q7 35 11.5 59.5t8 50t8 57.5t11.5 82 h275q0 -6 -2 -26t-5 -45.5t-7 -52t-9 -45.5h4z" />
<glyph unicode="q" horiz-adv-x="1251" d="M898 903q5 25 11.5 52.5t13 52t12.5 44.5t10 30h270q-5 -17 -20.5 -88t-40.5 -199l-236 -1220h-281l85 432q7 33 16 72t20 84h-4q-36 -47 -74 -81.5t-81.5 -57.5t-94 -34t-110.5 -11q-81 0 -143 27.5t-105 76t-65 116.5t-22 149q0 45 4.5 99.5t16.5 117.5q28 143 77 245 t114 167t143.5 95t165.5 30q66 0 115.5 -11t86.5 -35t64 -62t47 -91h5zM518 172q53 0 100.5 16.5t87.5 57t71 109t50 172.5q8 44 12 82t4 71q0 112 -41.5 171t-132.5 59q-53 0 -98.5 -15.5t-83 -54.5t-66 -105.5t-47.5 -169.5q-10 -52 -14 -96.5t-4 -82.5q0 -49 9.5 -88.5 t29 -67.5t50 -43t73.5 -15z" />
<glyph unicode="r" horiz-adv-x="797" d="M844 853q-23 5 -49 10t-65 5q-123 0 -200.5 -87t-112.5 -267l-101 -514h-281l161 830q7 35 13 70t11.5 68t10 62.5t7.5 51.5h268q-3 -22 -6.5 -52t-7.5 -61t-8.5 -59.5t-7.5 -48.5h4q34 62 67.5 107.5t70 75t78 44t91.5 14.5q12 0 26.5 -1.5t29 -3.5t27 -4.5t20.5 -4.5z " />
<glyph unicode="s" d="M1000 334q0 -89 -33.5 -155.5t-98 -110.5t-158 -66t-213.5 -22q-201 0 -317 71t-157 220l251 36q10 -36 28 -62.5t47 -44t70.5 -26t97.5 -8.5q49 0 89.5 7.5t70 24t46 42.5t16.5 62q0 32 -13.5 52.5t-41 35t-70 26t-99.5 23.5q-79 18 -145.5 43t-114.5 63.5t-75 93 t-27 130.5q0 90 37.5 152.5t103 102t153.5 57.5t190 18q93 0 167.5 -14.5t128.5 -48.5t88.5 -89t47.5 -136l-251 -29q-17 69 -66 100t-134 31q-43 0 -80.5 -5.5t-65 -19.5t-43.5 -37t-16 -58q0 -32 19 -53.5t53 -37t81 -27t102 -24.5q70 -16 130.5 -39t105.5 -59.5 t70.5 -89.5t25.5 -129z" />
<glyph unicode="t" horiz-adv-x="682" d="M560 8q-37 -11 -84 -17.5t-100 -6.5q-59 0 -107 14t-82 42t-52.5 70.5t-18.5 98.5q0 45 5.5 87.5t10.5 69.5l102 526h-148l37 190h162l137 254h176l-48 -254h202l-35 -190h-205l-104 -535q-4 -20 -8 -48.5t-3 -48.5q2 -42 25.5 -62.5t61.5 -20.5q24 0 48.5 3.5t59.5 9.5z " />
<glyph unicode="u" horiz-adv-x="1251" d="M512 1082l-118 -595q-4 -19 -8.5 -42t-8.5 -46t-6.5 -43t-2.5 -34q0 -63 38 -96t114 -33q47 0 94.5 20t88 57t70.5 89.5t42 116.5l118 606h282l-166 -851q-7 -34 -13.5 -71.5t-11.5 -71t-8.5 -57.5t-4.5 -31h-268q0 5 2.5 27t6 50.5t7.5 58t8 49.5h-3q-30 -42 -66 -79 t-81 -65t-101 -44t-125 -16q-152 0 -229 73t-77 211q0 18 2.5 41t5.5 45.5t6.5 43.5t6.5 34l127 653h279z" />
<glyph unicode="v" d="M622 0h-336l-176 1082h289l71 -605q4 -30 7 -66l6 -72t5.5 -70t3.5 -61q11 26 25.5 60t31 70t33.5 71t32 65l316 608h302z" />
<glyph unicode="w" horiz-adv-x="1593" d="M1207 0h-297l-43 660q-2 31 -2.5 71t-1.5 75q-1 41 -1 84q-16 -43 -33 -84q-14 -35 -30.5 -75.5t-31.5 -72.5l-302 -658h-297l-69 1082h258l13 -636q1 -27 1 -60.5v-62.5v-68q13 34 27 68q12 29 25.5 62.5t26.5 60.5l294 636h301l42 -636q2 -26 2.5 -59t1.5 -62 q1 -34 1 -70q14 36 28 70q12 29 25 62t24 59l267 636h266z" />
<glyph unicode="x" d="M724 0l-186 383l-327 -383h-301l508 562l-279 520h292l173 -347l296 347h308l-483 -525l294 -557h-295z" />
<glyph unicode="y" d="M570 -57q-56 -87 -106.5 -155t-106 -115.5t-120.5 -72.5t-149 -25q-52 0 -93.5 4.5t-79.5 13.5l38 196q18 -4 42.5 -6.5t44.5 -2.5q38 0 70.5 10t63.5 33t61 60.5t61 92.5l28 48l-212 1058h291l71 -497q2 -11 5.5 -37t7 -59.5t7.5 -70.5t7 -70.5t5.5 -59.5t2.5 -37 q5 11 16.5 36.5t27 58t32.5 68.5t32.5 69t28.5 59.5t19 38.5l259 501h300z" />
<glyph unicode="z" horiz-adv-x="1024" d="M-35 0l38 199l653 680h-480l40 203h809l-39 -201l-650 -676h567l-40 -205h-898z" />
<glyph unicode="{" horiz-adv-x="797" d="M388 -425q-59 0 -106.5 15.5t-80.5 44.5t-51 70.5t-18 92.5q0 17 3 46t8 55l61 308q7 35 7 68q0 42 -13.5 72t-38.5 48.5t-60.5 27.5t-79.5 10l38 192q53 1 98 13.5t80 39.5t59.5 69.5t36.5 104.5l67 338q29 146 112.5 220t237.5 74h194l-37 -190h-76q-45 0 -76.5 -13 t-53 -38.5t-36 -64t-24.5 -89.5l-60 -310q-10 -50 -34.5 -91.5t-59 -73t-76.5 -52.5t-86 -30l-1 -4q36 -9 65.5 -26t51.5 -41.5t34 -56.5t12 -71q0 -13 -1 -25.5t-4 -26.5l-65 -334q-3 -14 -6 -36.5t-3 -39.5q0 -53 33 -79t89 -26h80l-37 -191h-183z" />
<glyph unicode="|" horiz-adv-x="573" d="M191 -425v1909h262v-1909h-262z" />
<glyph unicode="}" horiz-adv-x="797" d="M399 1485q59 0 106.5 -15.5t80.5 -44.5t51 -70.5t18 -92.5q0 -17 -3 -46.5t-8 -54.5l-61 -308q-4 -19 -5.5 -36t-1.5 -32q0 -43 13.5 -72.5t38.5 -48.5t60.5 -27.5t79.5 -9.5l-38 -192q-53 -1 -98 -13.5t-80 -39.5t-59.5 -70t-36.5 -105l-67 -337q-15 -74 -42.5 -129 t-70 -92t-101.5 -55.5t-136 -18.5h-194l37 190h76q45 0 76.5 13t53 38.5t36 64t24.5 89.5l60 310q10 50 34.5 92t59 73.5t76.5 52.5t86 30l1 3q-36 9 -65.5 26t-51.5 42t-34 57t-12 71q0 12 1 25t4 27l65 333q3 15 6 37.5t3 39.5q0 53 -33 79t-89 26h-80l37 191h183z" />
<glyph unicode="~" horiz-adv-x="1196" d="M889 516q-75 0 -147.5 21t-147.5 47q-66 23 -120.5 35t-100.5 12q-39 0 -72.5 -6t-64 -17.5t-59.5 -27.5t-59 -37v213q51 38 119 61t152 23q80 0 156.5 -22t150.5 -48q54 -19 109 -33t103 -14q68 0 132 25t116 67v-219q-32 -22 -62.5 -37.5t-62 -25t-66.5 -13.5t-76 -4z " />
<glyph unicode="&#xa1;" horiz-adv-x="682" d="M247 812l53 270h288l-53 -270h-288zM20 -327l222 981h230l-158 -981h-294z" />
<glyph unicode="&#xa2;" d="M549 328q83 0 137 52.5t86 155.5l271 -50q-23 -75 -60.5 -137t-93.5 -107t-131.5 -72.5t-173.5 -33.5l-32 -167h-162l32 174q-88 14 -153 50.5t-108 90.5t-64 124t-21 152q0 40 3.5 87t14.5 92q35 153 94 251t132.5 155.5t155.5 81.5t162 28l31 154h162l-32 -161 q79 -13 137.5 -46t98 -80t61 -105t26.5 -121l-284 -23q-5 90 -45.5 140.5t-121.5 50.5q-56 0 -97.5 -18.5t-73.5 -59t-57.5 -104t-48.5 -152.5q-4 -20 -8 -42.5t-7.5 -45t-5.5 -43t-2 -37.5q0 -121 45 -177.5t133 -56.5z" />
<glyph unicode="&#xa3;" d="M1104 363q-42 -179 -156 -271t-285 -92h-714l39 205q94 38 151 104.5t78 171.5l25 123h-187l32 170h178l51 260q18 95 51.5 168.5t87.5 124t132 77t185 26.5q99 0 171.5 -24t121.5 -65.5t75.5 -96t33.5 -114.5l-245 -48q-15 84 -56.5 120.5t-112.5 36.5q-37 0 -66 -10 t-51 -33t-38 -60.5t-27 -93.5l-53 -268h286l-33 -170h-286l-27 -126q-23 -107 -83 -170.5t-149 -97.5h408q95 0 154.5 45t83.5 147z" />
<glyph unicode="&#xa4;" d="M149 684q0 60 15.5 116t44.5 105l-133 133l157 156l131 -133q48 28 104 43.5t116 15.5t115.5 -15t103.5 -44l135 135l158 -158l-136 -135q29 -48 44.5 -103.5t15.5 -115.5t-15 -114.5t-43 -102.5l134 -133l-158 -160l-133 135q-100 -59 -221 -59q-60 0 -116 14.5 t-104 42.5l-135 -137l-157 158l135 137q-28 48 -43 103.5t-15 115.5zM375 686q0 -43 16.5 -81t45 -66.5t66.5 -45t81 -16.5t80.5 16.5t66 45t45 66.5t16.5 81t-16.5 81t-45 66.5t-66 45t-80.5 16.5t-81 -16.5t-66.5 -45t-45 -66.5t-16.5 -81z" />
<glyph unicode="&#xa5;" d="M797 691h276l-28 -146h-338l-32 -162h338l-28 -147h-338l-46 -236h-272l46 236h-336l28 147h337l32 162h-337l28 146h276l-224 718h284l154 -596l390 596h294z" />
<glyph unicode="&#xa6;" horiz-adv-x="573" d="M192 736v748h262v-748h-262zM192 -425v749h262v-749h-262z" />
<glyph unicode="&#xa7;" d="M718 1427q87 0 164 -14.5t134.5 -46.5t92.5 -84.5t39 -128.5l-244 -25q-12 68 -68 98.5t-139 30.5q-113 0 -170.5 -34t-57.5 -99q0 -37 23.5 -63.5t60 -44.5t81.5 -30.5t88 -22.5q65 -15 128.5 -38t114.5 -57.5t82.5 -83t31.5 -116.5q0 -64 -17.5 -112t-50 -84t-78.5 -61 t-103 -43q63 -35 97.5 -93t34.5 -133q0 -94 -36.5 -163.5t-105.5 -115.5t-168.5 -69t-226.5 -23q-103 0 -185 15.5t-141.5 49.5t-95 89t-45.5 134l244 37q14 -83 72 -119t164 -36q51 0 100.5 7t89 24.5t64 47.5t24.5 75q0 47 -24 77t-65.5 50t-96 33.5t-114.5 27.5 q-63 14 -121 37t-102.5 58.5t-71 86t-26.5 120.5q0 57 19.5 101.5t55 78.5t85.5 57.5t111 38.5q-29 16 -55 38t-46 51.5t-32 67t-12 82.5q0 89 34 151t98 101t156.5 57t208.5 18zM571 780q-103 -6 -164 -45t-61 -109q0 -40 21 -67.5t56 -47t81 -32.5t96 -25q39 3 80 11.5 t74.5 25t54.5 42.5t21 65q0 35 -12.5 61t-42.5 47.5t-80 39t-124 34.5z" />
<glyph unicode="&#xa8;" horiz-adv-x="682" d="M568 1199l43 219h217l-43 -219h-217zM135 1199l42 219h214l-43 -219h-213z" />
<glyph unicode="&#xa9;" horiz-adv-x="1509" d="M1508 707q0 -100 -26 -192.5t-73 -173t-112.5 -146t-146 -112.5t-173 -73t-192.5 -26q-99 0 -191.5 26t-172.5 73t-146.5 112.5t-113.5 146t-73 173t-26 192.5t26 192t73 172.5t113 146.5t146.5 113t172.5 73t192 26q150 0 281.5 -57t230 -155t155 -229.5t56.5 -281.5z M1396 707q0 126 -48 236.5t-131 193t-194 130.5t-238 48q-84 0 -161.5 -22t-145.5 -61.5t-123 -95t-95 -123t-61.5 -145t-21.5 -161.5q0 -127 48 -238t130.5 -194t193 -131t236.5 -48q127 0 238 48t194 131t131 194t48 238zM798 285q-104 0 -180 31.5t-126 88t-74 134.5 t-24 170q0 96 24 173t73 130.5t123.5 82.5t174.5 29q78 0 136 -18.5t99.5 -50t70 -73t47.5 -87.5l-156 -41q-10 24 -26 47t-39.5 41.5t-54.5 29.5t-72 11q-58 0 -100 -19.5t-68.5 -55.5t-39 -86.5t-12.5 -112.5t13.5 -114t41.5 -89.5t70 -58.5t99 -21q41 0 73 13t56 34 t40.5 46.5t26.5 49.5l160 -47q-20 -43 -48.5 -85.5t-70.5 -76.5t-100 -54.5t-137 -20.5z" />
<glyph unicode="&#xaa;" horiz-adv-x="758" d="M790 709q-26 -9 -55 -10.5t-56 -1.5q-66 0 -101.5 26t-35.5 72q0 9 0.5 20t2.5 21h-3q-22 -34 -44.5 -61.5t-50 -46.5t-62.5 -29t-81 -10q-50 0 -87.5 16.5t-62.5 43.5t-37.5 62t-12.5 73q0 78 32 125.5t82.5 73.5t113.5 35t125 10l123 2l5 26q9 36 9 61q0 42 -22 62 t-60 20q-19 0 -39 -2.5t-38 -12t-32.5 -27.5t-22.5 -49l-171 19q20 88 94 139.5t212 51.5q135 0 197.5 -46.5t62.5 -144.5q0 -20 -5.5 -48t-10.5 -55l-47 -229q-1 -11 -3 -23.5t-2 -23.5q0 -16 6.5 -24.5t15 -12.5t17.5 -5t13 -1q10 0 17.5 1t23.5 5zM561 1029l-98 -2 q-77 -2 -121 -30.5t-44 -82.5q0 -51 25.5 -74.5t63.5 -23.5q18 0 41 7.5t45.5 25t41.5 47t30 73.5z" />
<glyph unicode="&#xab;" d="M722 139l-192 361l14 71l323 367h239l-6 -41l-329 -366l188 -353l-5 -39h-232zM264 139l-192 361l14 71l323 367h239l-6 -41l-329 -366l188 -353l-5 -39h-232z" />
<glyph unicode="&#xac;" horiz-adv-x="1196" d="M878 141v428h-803v224h1027v-652h-224z" />
<glyph unicode="&#xad;" horiz-adv-x="682" d="M56 409l47 244h520l-47 -244h-520z" />
<glyph unicode="&#xae;" horiz-adv-x="1509" d="M1508 707q0 -100 -26 -192.5t-73 -173t-112.5 -146t-146 -112.5t-173 -73t-192.5 -26q-99 0 -191.5 26t-172.5 73t-146.5 112.5t-113.5 146t-73 173t-26 192.5t26 192t73 172.5t113 146.5t146.5 113t172.5 73t192 26q150 0 281.5 -57t230 -155t155 -229.5t56.5 -281.5z M1396 707q0 126 -48 236.5t-131 193t-194 130.5t-238 48q-84 0 -161.5 -22t-145.5 -61.5t-123 -95t-95 -123t-61.5 -145t-21.5 -161.5q0 -127 48 -238t130.5 -194t193 -131t236.5 -48q127 0 238 48t194 131t131 194t48 238zM953 297l-178 313h-117v-313h-178v815h330 q153 0 229 -64.5t76 -177.5q0 -94 -48 -153t-126 -84l213 -336h-201zM935 868q0 57 -37.5 87t-106.5 30h-133v-246h144q66 0 99.5 35.5t33.5 93.5z" />
<glyph unicode="&#xaf;" horiz-adv-x="1131" d="M1148 1452h-1165v94h1165v-94z" />
<glyph unicode="&#xb0;" horiz-adv-x="819" d="M830 1110q0 -66 -25.5 -123.5t-69 -100t-102 -67t-124.5 -24.5t-124.5 24.5t-102 67t-68.5 100t-25 123.5q0 67 25 124.5t68.5 100t102 66.5t124.5 24t124.5 -24t102 -66.5t69 -100t25.5 -124.5zM672 1110q0 35 -12.5 65.5t-34.5 53t-51.5 35t-64.5 12.5t-65 -12.5 t-52.5 -35t-35.5 -53t-13 -65.5q0 -34 13 -64.5t35.5 -53.5t52.5 -36.5t65 -13.5t64.5 13.5t51.5 36.5t34.5 53.5t12.5 64.5z" />
<glyph unicode="&#xb1;" horiz-adv-x="1124" d="M712 707v-341h-224v341h-401v223h401v340h224v-340h402v-223h-402zM87 0v223h1027v-223h-1027z" />
<glyph unicode="&#xb2;" horiz-adv-x="682" d="M71 696l24 120q36 57 83.5 98t97 72.5t97.5 58t85.5 53.5t60.5 58.5t23 74.5q0 29 -22 48.5t-57 19.5q-36 0 -67.5 -20t-46.5 -77l-162 34q31 99 100 144.5t192 45.5q63 0 109 -14.5t77 -40t46 -59.5t15 -73q0 -60 -25 -104.5t-63.5 -79t-86.5 -61.5t-94 -51.5t-85 -49 t-61 -54.5h349l-25 -143h-564z" />
<glyph unicode="&#xb3;" horiz-adv-x="682" d="M496 915q0 27 -10 43.5t-25.5 25.5t-35.5 12.5t-40 3.5h-68l24 126h60q62 0 100 25t38 70q0 39 -20.5 61t-62.5 22t-71.5 -21t-43.5 -73l-163 24q15 56 42 92.5t65 59t86 31.5t105 9q118 0 184 -44.5t66 -134.5q0 -32 -12 -63t-35 -55.5t-57.5 -41t-78.5 -20.5l-1 -2 q64 -12 103 -50.5t39 -101.5q0 -51 -22.5 -92.5t-63.5 -71t-99.5 -45.5t-129.5 -16q-74 0 -124.5 17t-82 45t-46.5 63.5t-20 71.5l181 25q8 -48 33 -73.5t75 -25.5q46 0 78.5 26.5t32.5 77.5z" />
<glyph unicode="&#xb4;" horiz-adv-x="682" d="M255 1183l6 31l247 288h277l-8 -43l-376 -276h-146z" />
<glyph unicode="&#xb5;" horiz-adv-x="1180" d="M875 -20q-49 0 -81 9.5t-50.5 27.5t-26 44.5t-7.5 60.5v21t2 21h-4q-42 -87 -95 -135.5t-134 -48.5q-59 0 -97.5 24.5t-53.5 65.5h-6q-4 -28 -6 -43.5t-3 -26t-2.5 -20t-4.5 -25.5l-73 -380h-280l291 1507h281l-118 -605q-6 -33 -9 -63t-4 -56q0 -77 29 -121t96 -44 q43 0 79.5 22.5t65.5 63t49.5 98t32.5 127.5l112 578h281l-147 -757q-4 -20 -6.5 -35.5t-2.5 -29.5q0 -41 16 -55t34 -14q10 0 23 2t23 5l-16 -193q-38 -9 -87.5 -17t-100.5 -8z" />
<glyph unicode="&#xb6;" d="M975 1266v-1530h-156v1530h-195v-1530h-155v958q-81 0 -147.5 22.5t-114.5 66.5t-74.5 111t-26.5 155q0 84 25 150.5t72.5 113t116.5 71.5t157 25h629v-143h-131z" />
<glyph unicode="&#xb7;" horiz-adv-x="682" d="M189 531l59 305h288l-59 -305h-288z" />
<glyph unicode="&#xb8;" horiz-adv-x="682" d="M194 -425q-23 0 -50.5 1.5t-55.5 4.5l29 117q24 -4 44.5 -5.5t37.5 -1.5q81 0 118 17.5t37 59.5q0 31 -26 47t-84 16h-25.5t-27.5 -2l98 171h141l-48 -83q70 -1 113.5 -33.5t43.5 -98.5q0 -97 -84 -153.5t-261 -56.5z" />
<glyph unicode="&#xb9;" horiz-adv-x="682" d="M98 693l23 121h184l91 468l-194 -108l24 122l202 117h175l-116 -599h170l-23 -121h-536z" />
<glyph unicode="&#xba;" horiz-adv-x="748" d="M828 1142q0 -105 -32 -189t-88 -142.5t-132.5 -90t-166.5 -31.5q-70 0 -126.5 20t-96.5 57.5t-62 91.5t-22 122q0 100 30.5 181t85 138t130.5 88t167 31q153 0 233 -73.5t80 -202.5zM625 1128q0 43 -10 72t-27 47t-39.5 25.5t-47.5 7.5t-52.5 -6t-52.5 -25.5t-45.5 -56 t-32.5 -97.5q-5 -30 -8.5 -57t-3.5 -51q0 -46 10 -77t27 -49.5t39 -26.5t47 -8q24 0 49.5 4t49.5 22t45.5 55.5t36.5 104.5q8 32 10.5 59.5t4.5 56.5z" />
<glyph unicode="&#xbb;" d="M422 938l192 -361l-14 -71l-323 -367h-239l6 41l329 366l-188 353l5 39h232zM880 938l192 -361l-14 -71l-323 -367h-239l6 41l329 366l-188 353l5 39h232z" />
<glyph unicode="&#xbc;" horiz-adv-x="1708" d="M1420 141l-27 -140h-183l27 140h-347l28 148l395 432h219l-84 -437h103l-28 -143h-103zM1324 580q-6 -7 -14.5 -19t-19.5 -26.5t-23.5 -30t-25.5 -29.5l-178 -191h202l62 299zM98 693l23 121h184l91 468l-194 -108l24 122l202 117h175l-116 -599h170l-23 -121h-536z M429 0h-197l1086 1409h199z" />
<glyph unicode="&#xbd;" horiz-adv-x="1708" d="M98 0zM98 693l23 121h184l91 468l-194 -108l24 122l202 117h175l-116 -599h170l-23 -121h-536zM429 0h-197l1086 1409h199zM949 1l24 120q36 57 83.5 98t97 72.5t97.5 58t85.5 53.5t60.5 58.5t23 74.5q0 29 -22 48.5t-57 19.5q-36 0 -67.5 -20t-46.5 -77l-162 34 q31 99 100 144.5t192 45.5q63 0 109 -14.5t77 -40t46 -59.5t15 -73q0 -60 -25 -104.5t-63.5 -79t-86.5 -61.5t-94 -51.5t-85 -49t-61 -54.5h349l-25 -143h-564z" />
<glyph unicode="&#xbe;" horiz-adv-x="1708" d="M1420 141l-27 -140h-183l27 140h-347l28 148l395 432h219l-84 -437h103l-28 -143h-103zM1324 580q-6 -7 -14.5 -19t-19.5 -26.5t-23.5 -30t-25.5 -29.5l-178 -191h202l62 299zM429 0h-197l1086 1409h199zM510 915q0 27 -10 43.5t-25.5 25.5t-35.5 12.5t-40 3.5h-68 l24 126h60q62 0 100 25t38 70q0 39 -20.5 61t-62.5 22t-71.5 -21t-43.5 -73l-163 24q15 56 42 92.5t65 59t86 31.5t105 9q118 0 184 -44.5t66 -134.5q0 -32 -12 -63t-35 -55.5t-57.5 -41t-78.5 -20.5l-1 -2q64 -12 103 -50.5t39 -101.5q0 -51 -22.5 -92.5t-63.5 -71 t-99.5 -45.5t-129.5 -16q-74 0 -124.5 17t-82 45t-46.5 63.5t-20 71.5l181 25q8 -48 33 -73.5t75 -25.5q46 0 78.5 26.5t32.5 77.5z" />
<glyph unicode="&#xbf;" horiz-adv-x="1251" d="M490 -348q-104 0 -189.5 23.5t-146.5 68.5t-94.5 111t-33.5 152t32.5 151.5t85 117.5t118 93t132.5 78q35 23 64.5 43.5t52.5 44.5t38 53t20 68h267q-13 -70 -38.5 -121.5t-62 -92t-84.5 -74.5t-106 -70q-69 -43 -114.5 -76t-72.5 -63.5t-38 -61.5t-11 -70 q0 -63 48 -104.5t149 -41.5q110 0 181 46.5t98 146.5l266 -40q-27 -88 -73 -158.5t-115 -120t-161.5 -76.5t-211.5 -27zM926 1082l-52 -270h-289l52 270h289z" />
<glyph unicode="&#xc0;" horiz-adv-x="1479" d="M0 0zM1039 0l-55 360h-537l-195 -360h-294l787 1409h348l238 -1409h-292zM894 1034l-5 37.5t-6 46t-5 44t-2 30.5q-4 -12 -14.5 -36.5t-24 -54.5t-29.5 -62t-30 -59l-212 -398h395zM954 1530l-304 235l9 43h238l203 -247l-7 -31h-139z" />
<glyph unicode="&#xc1;" horiz-adv-x="1479" d="M0 0zM1039 0l-55 360h-537l-195 -360h-294l787 1409h348l238 -1409h-292zM894 1034l-5 37.5t-6 46t-5 44t-2 30.5q-4 -12 -14.5 -36.5t-24 -54.5t-29.5 -62t-30 -59l-212 -398h395zM764 1530l7 31l270 247h267l-9 -43l-386 -235h-149z" />
<glyph unicode="&#xc2;" horiz-adv-x="1479" d="M0 0zM1039 0l-55 360h-537l-195 -360h-294l787 1409h348l238 -1409h-292zM894 1034l-5 37.5t-6 46t-5 44t-2 30.5q-4 -12 -14.5 -36.5t-24 -54.5t-29.5 -62t-30 -59l-212 -398h395zM1288 1559l-5 -29h-149l-174 151h-4l-240 -151h-169l5 29l311 276h229z" />
<glyph unicode="&#xc3;" horiz-adv-x="1479" d="M0 0zM1039 0l-55 360h-537l-195 -360h-294l787 1409h348l238 -1409h-292zM894 1034l-5 37.5t-6 46t-5 44t-2 30.5q-4 -12 -14.5 -36.5t-24 -54.5t-29.5 -62t-30 -59l-212 -398h395zM1067 1530q-44 0 -84.5 19t-78 42.5t-71.5 42.5t-64 19q-26 0 -44.5 -8.5t-32.5 -24.5 t-24.5 -38.5t-20.5 -51.5h-136q11 45 29 96t49.5 95t80.5 73t122 29q45 0 86.5 -19t78.5 -42.5t70 -42.5t62 -19q25 0 43.5 8.5t32.5 24.5t25.5 39t21.5 51h135q-11 -45 -29 -96t-49.5 -95t-80 -73t-121.5 -29z" />
<glyph unicode="&#xc4;" horiz-adv-x="1479" d="M0 0zM1039 0l-55 360h-537l-195 -360h-294l787 1409h348l238 -1409h-292zM894 1034l-5 37.5t-6 46t-5 44t-2 30.5q-4 -12 -14.5 -36.5t-24 -54.5t-29.5 -62t-30 -59l-212 -398h395zM1040 1530l43 219h217l-43 -219h-217zM607 1530l42 219h214l-43 -219h-213z" />
<glyph unicode="&#xc5;" horiz-adv-x="1479" d="M0 0zM1039 0l-55 360h-537l-195 -360h-294l787 1409h348l238 -1409h-292zM894 1034l-5 37.5t-6 46t-5 44t-2 30.5q-4 -12 -14.5 -36.5t-24 -54.5t-29.5 -62t-30 -59l-212 -398h395zM1180 1538q0 -53 -20 -99.5t-54.5 -81t-81 -54t-98.5 -19.5t-98.5 19.5t-81 54t-54.5 81 t-20 99.5q0 52 20 98.5t54.5 81t81 54.5t98.5 20t98.5 -20t81 -54.5t54.5 -81t20 -98.5zM1053 1538q0 26 -10 48.5t-27 39.5t-40.5 27t-49.5 10t-49 -10t-40 -27t-26.5 -39.5t-9.5 -48.5q0 -27 9.5 -50.5t26.5 -40.5t40 -27t49 -10t49.5 10t40.5 27t27 40.5t10 50.5z" />
<glyph unicode="&#xc6;" horiz-adv-x="2048" d="M837 0l70 360h-450l-242 -360h-312l965 1409h1231l-45 -227h-701l-69 -355h639l-43 -221h-639l-73 -379h742l-44 -227h-1029zM1068 1192h-61q-5 -9 -23.5 -37t-40 -61.5t-42 -65t-30.5 -45.5l-269 -401h348z" />
<glyph unicode="&#xc7;" horiz-adv-x="1479" d="M81 0zM382 573q0 -84 21 -151t62.5 -114t103 -72t143.5 -25q78 0 142 21t115.5 57t91 82.5t69.5 97.5l227 -117q-43 -76 -103 -144t-141 -118.5t-185 -80t-236 -29.5q-157 0 -272.5 46t-190.5 125.5t-111.5 187t-36.5 230.5q0 124 26 236t75.5 207.5t121.5 173t164 131.5 t202.5 83.5t237.5 29.5q137 0 236.5 -32t168.5 -86t110 -125t61 -149l-274 -71q-12 44 -36.5 85.5t-62.5 74t-91 52t-121 19.5q-126 0 -222.5 -45.5t-162 -128t-99 -197.5t-33.5 -254zM543 -425q-23 0 -50.5 1.5t-55.5 4.5l29 117q24 -4 44.5 -5.5t37.5 -1.5q81 0 118 17.5 t37 59.5q0 31 -26 47t-84 16h-25.5t-27.5 -2l98 171h141l-48 -83q70 -1 113.5 -33.5t43.5 -98.5q0 -97 -84 -153.5t-261 -56.5z" />
<glyph unicode="&#xc8;" horiz-adv-x="1366" d="M36 0zM36 0l273 1409h1108l-44 -228h-813l-69 -354h752l-44 -228h-752l-72 -371h854l-45 -228h-1148zM860 1530l-304 235l9 43h238l203 -247l-7 -31h-139z" />
<glyph unicode="&#xc9;" horiz-adv-x="1366" d="M36 0zM36 0l273 1409h1108l-44 -228h-813l-69 -354h752l-44 -228h-752l-72 -371h854l-45 -228h-1148zM714 1530l7 31l270 247h267l-9 -43l-386 -235h-149z" />
<glyph unicode="&#xca;" horiz-adv-x="1366" d="M36 0zM36 0l273 1409h1108l-44 -228h-813l-69 -354h752l-44 -228h-752l-72 -371h854l-45 -228h-1148zM1254 1559l-5 -29h-149l-174 151h-4l-240 -151h-169l5 29l311 276h229z" />
<glyph unicode="&#xcb;" horiz-adv-x="1366" d="M36 0zM36 0l273 1409h1108l-44 -228h-813l-69 -354h752l-44 -228h-752l-72 -371h854l-45 -228h-1148zM995 1530l43 219h217l-43 -219h-217zM562 1530l42 219h214l-43 -219h-213z" />
<glyph unicode="&#xcc;" horiz-adv-x="569" d="M36 0zM36 0l273 1409h295l-274 -1409h-294zM482 1530l-304 235l9 43h238l203 -247l-7 -31h-139z" />
<glyph unicode="&#xcd;" horiz-adv-x="569" d="M36 0zM36 0l273 1409h295l-274 -1409h-294zM326 1530l7 31l270 247h267l-9 -43l-386 -235h-149z" />
<glyph unicode="&#xce;" horiz-adv-x="569" d="M36 0zM36 0l273 1409h295l-274 -1409h-294zM846 1559l-5 -29h-149l-174 151h-4l-240 -151h-169l5 29l311 276h229z" />
<glyph unicode="&#xcf;" horiz-adv-x="569" d="M36 0zM36 0l273 1409h295l-274 -1409h-294zM584 1530l43 219h217l-43 -219h-217zM151 1530l42 219h214l-43 -219h-213z" />
<glyph unicode="&#xd0;" horiz-adv-x="1479" d="M734 1409q163 0 290.5 -38t215.5 -113.5t134.5 -188t46.5 -262.5q0 -133 -30.5 -244.5t-85 -201t-130 -157t-165 -113t-190.5 -68.5t-206 -23h-578l115 594h-128l42 219h129l116 596h424zM488 813h357l-44 -219h-355l-71 -366h230q116 0 215 37t171 108.5t113 177 t41 243.5q0 98 -28 170.5t-80.5 120.5t-128.5 72t-172 24h-176z" />
<glyph unicode="&#xd1;" horiz-adv-x="1479" d="M36 0zM884 0l-374 1131q-6 -43 -12 -85q-5 -36 -12 -77.5t-14 -76.5l-174 -892h-262l274 1409h350l377 -1141q6 39 12 82q5 37 12.5 82.5t16.5 91.5l174 885h262l-274 -1409h-356zM1100 1530q-44 0 -84.5 19t-78 42.5t-71.5 42.5t-64 19q-26 0 -44.5 -8.5t-32.5 -24.5 t-24.5 -38.5t-20.5 -51.5h-136q11 45 29 96t49.5 95t80.5 73t122 29q45 0 86.5 -19t78.5 -42.5t70 -42.5t62 -19q25 0 43.5 8.5t32.5 24.5t25.5 39t21.5 51h135q-11 -45 -29 -96t-49.5 -95t-80 -73t-121.5 -29z" />
<glyph unicode="&#xd2;" horiz-adv-x="1593" d="M100 0zM928 1430q148 0 265 -40.5t198.5 -116t124.5 -182.5t43 -240q0 -49 -5 -101.5t-15 -100.5q-31 -154 -101.5 -277.5t-174.5 -210.5t-239.5 -134t-296.5 -47q-153 0 -270 43.5t-196.5 122t-120 187.5t-40.5 240q0 46 4.5 94t14.5 97q31 150 100 273t172 210.5 t238.5 135t298.5 47.5zM914 1197q-107 0 -191 -32t-145.5 -92t-102.5 -147.5t-62 -198.5q-7 -37 -10 -74.5t-3 -71.5q0 -184 90 -276.5t251 -92.5q108 0 192 32.5t146 93.5t102.5 147.5t61.5 194.5q7 36 9.5 77t2.5 70q0 93 -24 162t-68 115.5t-107.5 69.5t-141.5 23z M988 1530l-304 235l9 43h238l203 -247l-7 -31h-139z" />
<glyph unicode="&#xd3;" horiz-adv-x="1593" d="M100 0zM928 1430q148 0 265 -40.5t198.5 -116t124.5 -182.5t43 -240q0 -49 -5 -101.5t-15 -100.5q-31 -154 -101.5 -277.5t-174.5 -210.5t-239.5 -134t-296.5 -47q-153 0 -270 43.5t-196.5 122t-120 187.5t-40.5 240q0 46 4.5 94t14.5 97q31 150 100 273t172 210.5 t238.5 135t298.5 47.5zM914 1197q-107 0 -191 -32t-145.5 -92t-102.5 -147.5t-62 -198.5q-7 -37 -10 -74.5t-3 -71.5q0 -184 90 -276.5t251 -92.5q108 0 192 32.5t146 93.5t102.5 147.5t61.5 194.5q7 36 9.5 77t2.5 70q0 93 -24 162t-68 115.5t-107.5 69.5t-141.5 23z M857 1530l7 31l270 247h267l-9 -43l-386 -235h-149z" />
<glyph unicode="&#xd4;" horiz-adv-x="1593" d="M100 0zM928 1430q148 0 265 -40.5t198.5 -116t124.5 -182.5t43 -240q0 -49 -5 -101.5t-15 -100.5q-31 -154 -101.5 -277.5t-174.5 -210.5t-239.5 -134t-296.5 -47q-153 0 -270 43.5t-196.5 122t-120 187.5t-40.5 240q0 46 4.5 94t14.5 97q31 150 100 273t172 210.5 t238.5 135t298.5 47.5zM914 1197q-107 0 -191 -32t-145.5 -92t-102.5 -147.5t-62 -198.5q-7 -37 -10 -74.5t-3 -71.5q0 -184 90 -276.5t251 -92.5q108 0 192 32.5t146 93.5t102.5 147.5t61.5 194.5q7 36 9.5 77t2.5 70q0 93 -24 162t-68 115.5t-107.5 69.5t-141.5 23z M1317 1559l-5 -29h-149l-174 151h-4l-240 -151h-169l5 29l311 276h229z" />
<glyph unicode="&#xd5;" horiz-adv-x="1593" d="M100 0zM928 1430q148 0 265 -40.5t198.5 -116t124.5 -182.5t43 -240q0 -49 -5 -101.5t-15 -100.5q-31 -154 -101.5 -277.5t-174.5 -210.5t-239.5 -134t-296.5 -47q-153 0 -270 43.5t-196.5 122t-120 187.5t-40.5 240q0 46 4.5 94t14.5 97q31 150 100 273t172 210.5 t238.5 135t298.5 47.5zM914 1197q-107 0 -191 -32t-145.5 -92t-102.5 -147.5t-62 -198.5q-7 -37 -10 -74.5t-3 -71.5q0 -184 90 -276.5t251 -92.5q108 0 192 32.5t146 93.5t102.5 147.5t61.5 194.5q7 36 9.5 77t2.5 70q0 93 -24 162t-68 115.5t-107.5 69.5t-141.5 23z M1136 1530q-44 0 -84.5 19t-78 42.5t-71.5 42.5t-64 19q-26 0 -44.5 -8.5t-32.5 -24.5t-24.5 -38.5t-20.5 -51.5h-136q11 45 29 96t49.5 95t80.5 73t122 29q45 0 86.5 -19t78.5 -42.5t70 -42.5t62 -19q25 0 43.5 8.5t32.5 24.5t25.5 39t21.5 51h135q-11 -45 -29 -96 t-49.5 -95t-80 -73t-121.5 -29z" />
<glyph unicode="&#xd6;" horiz-adv-x="1593" d="M100 0zM928 1430q148 0 265 -40.5t198.5 -116t124.5 -182.5t43 -240q0 -49 -5 -101.5t-15 -100.5q-31 -154 -101.5 -277.5t-174.5 -210.5t-239.5 -134t-296.5 -47q-153 0 -270 43.5t-196.5 122t-120 187.5t-40.5 240q0 46 4.5 94t14.5 97q31 150 100 273t172 210.5 t238.5 135t298.5 47.5zM914 1197q-107 0 -191 -32t-145.5 -92t-102.5 -147.5t-62 -198.5q-7 -37 -10 -74.5t-3 -71.5q0 -184 90 -276.5t251 -92.5q108 0 192 32.5t146 93.5t102.5 147.5t61.5 194.5q7 36 9.5 77t2.5 70q0 93 -24 162t-68 115.5t-107.5 69.5t-141.5 23z M1082 1530l43 219h217l-43 -219h-217zM649 1530l42 219h214l-43 -219h-213z" />
<glyph unicode="&#xd7;" horiz-adv-x="1196" d="M126 326l356 358l-352 352l158 156l352 -350l352 352l158 -158l-352 -354l352 -350l-158 -160l-352 354l-356 -358z" />
<glyph unicode="&#xd8;" horiz-adv-x="1593" d="M928 1430q120 0 219 -26.5t177 -77.5l131 140h203l-223 -239q61 -73 92.5 -167.5t31.5 -208.5q0 -49 -5 -101.5t-15 -100.5q-31 -154 -101.5 -277.5t-174.5 -210.5t-239.5 -134t-296.5 -47q-112 0 -204.5 23t-165.5 68l-115 -124h-207l205 220q-69 78 -104.5 180.5 t-35.5 225.5q0 46 4.5 94t14.5 97q31 150 100 273t172 210.5t238.5 135t298.5 47.5zM914 1197q-107 0 -191 -32t-145.5 -92t-102.5 -147.5t-62 -198.5q-7 -37 -10 -74.5t-3 -71.5q0 -121 39 -202l699 748q-87 70 -224 70zM1255 827q0 100 -29 175l-688 -738q79 -52 203 -52 q108 0 192 32.5t146 93.5t102.5 147.5t61.5 194.5q7 36 9.5 77t2.5 70z" />
<glyph unicode="&#xd9;" horiz-adv-x="1479" d="M119 0zM688 211q79 0 140 17t106.5 56t75.5 102t48 155l168 868h295l-171 -879q-28 -142 -83 -245.5t-138.5 -171t-197 -100.5t-259.5 -33q-129 0 -232 29.5t-174 86.5t-109 141.5t-38 193.5q0 21 2 48.5t5.5 55.5t7.5 54.5t8 45.5l148 774h295l-153 -810 q-7 -34 -12.5 -81.5t-5.5 -90.5q0 -54 20 -94.5t56.5 -67.5t87 -40.5t110.5 -13.5zM927 1530l-304 235l9 43h238l203 -247l-7 -31h-139z" />
<glyph unicode="&#xda;" horiz-adv-x="1479" d="M119 0zM688 211q79 0 140 17t106.5 56t75.5 102t48 155l168 868h295l-171 -879q-28 -142 -83 -245.5t-138.5 -171t-197 -100.5t-259.5 -33q-129 0 -232 29.5t-174 86.5t-109 141.5t-38 193.5q0 21 2 48.5t5.5 55.5t7.5 54.5t8 45.5l148 774h295l-153 -810 q-7 -34 -12.5 -81.5t-5.5 -90.5q0 -54 20 -94.5t56.5 -67.5t87 -40.5t110.5 -13.5zM789 1530l7 31l270 247h267l-9 -43l-386 -235h-149z" />
<glyph unicode="&#xdb;" horiz-adv-x="1479" d="M119 0zM688 211q79 0 140 17t106.5 56t75.5 102t48 155l168 868h295l-171 -879q-28 -142 -83 -245.5t-138.5 -171t-197 -100.5t-259.5 -33q-129 0 -232 29.5t-174 86.5t-109 141.5t-38 193.5q0 21 2 48.5t5.5 55.5t7.5 54.5t8 45.5l148 774h295l-153 -810 q-7 -34 -12.5 -81.5t-5.5 -90.5q0 -54 20 -94.5t56.5 -67.5t87 -40.5t110.5 -13.5zM1290 1559l-5 -29h-149l-174 151h-4l-240 -151h-169l5 29l311 276h229z" />
<glyph unicode="&#xdc;" horiz-adv-x="1479" d="M119 0zM688 211q79 0 140 17t106.5 56t75.5 102t48 155l168 868h295l-171 -879q-28 -142 -83 -245.5t-138.5 -171t-197 -100.5t-259.5 -33q-129 0 -232 29.5t-174 86.5t-109 141.5t-38 193.5q0 21 2 48.5t5.5 55.5t7.5 54.5t8 45.5l148 774h295l-153 -810 q-7 -34 -12.5 -81.5t-5.5 -90.5q0 -54 20 -94.5t56.5 -67.5t87 -40.5t110.5 -13.5zM1033 1530l43 219h217l-43 -219h-217zM600 1530l42 219h214l-43 -219h-213z" />
<glyph unicode="&#xdd;" horiz-adv-x="1366" d="M172 0zM836 578l-112 -578h-294l112 578l-370 831h292l259 -605l474 605h323zM716 1530l7 31l270 247h267l-9 -43l-386 -235h-149z" />
<glyph unicode="&#xde;" horiz-adv-x="1366" d="M331 0h-295l274 1409h295l-44 -225h246q124 0 220.5 -29t163 -84t101 -133t34.5 -176q0 -114 -40.5 -205t-114.5 -154.5t-178 -97.5t-231 -34h-378zM428 498h289q155 0 232.5 58t77.5 190q0 55 -18 94.5t-51 65t-78.5 37.5t-100.5 12h-262z" />
<glyph unicode="&#xdf;" horiz-adv-x="1251" d="M35 0l200 1027q50 237 188.5 347t373.5 110q89 0 161 -19.5t123 -56.5t78.5 -90.5t27.5 -121.5q0 -69 -21.5 -119.5t-53 -87.5t-69 -65t-69 -53.5t-53 -51.5t-21.5 -60q0 -36 18.5 -61.5t46.5 -49t61 -48t61 -58.5t46.5 -81t18.5 -116q0 -84 -29 -151.5t-82.5 -115 t-127.5 -73t-164 -25.5q-113 0 -190 15.5t-131 41.5l68 186q24 -11 49 -21.5t52 -18.5t57.5 -12.5t65.5 -4.5q80 0 121.5 42t41.5 114q0 45 -18 75.5t-45.5 55.5t-59 48t-59 52t-45.5 68.5t-18 96.5q0 58 21.5 99.5t54.5 74.5t70.5 61t70.5 59t54.5 68t21.5 88 q0 53 -36.5 83t-106.5 30q-54 0 -98.5 -14t-79 -45t-59 -80.5t-38.5 -120.5l-197 -1021h-281z" />
<glyph unicode="&#xe0;" d="M10 0zM1065 12q-42 -16 -85 -19t-88 -3q-100 0 -154 42t-54 111q0 15 1 31.5t4 32.5h-6q-34 -53 -69 -95t-77.5 -71.5t-95.5 -45t-124 -15.5q-78 0 -135.5 25t-95.5 66.5t-57 95.5t-19 111q0 81 22.5 140t61.5 101t91.5 68.5t112.5 41.5t125 21t128 7l191 3l8 36 q7 30 10 52.5t3 42.5q0 66 -34 97t-93 31q-29 0 -60 -4t-58.5 -18.5t-50 -43t-34.5 -76.5l-263 31q16 67 52 121t94 92.5t138.5 59.5t186.5 21q207 0 303.5 -73t96.5 -222q0 -31 -8 -74t-16 -83l-71 -353q-3 -17 -5.5 -36.5t-2.5 -35.5q0 -24 10 -37t23 -19t26 -7.5t20 -1.5 q14 0 26.5 1t35.5 6zM711 503h-162q-117 -2 -184.5 -48t-67.5 -130q0 -39 12 -67.5t32 -46.5t46.5 -26.5t55.5 -8.5t64.5 11.5t70 38.5t64.5 72.5t47 112.5zM700 1183l-307 276l8 43h258l195 -288l-6 -31h-148z" />
<glyph unicode="&#xe1;" d="M10 0zM1065 12q-42 -16 -85 -19t-88 -3q-100 0 -154 42t-54 111q0 15 1 31.5t4 32.5h-6q-34 -53 -69 -95t-77.5 -71.5t-95.5 -45t-124 -15.5q-78 0 -135.5 25t-95.5 66.5t-57 95.5t-19 111q0 81 22.5 140t61.5 101t91.5 68.5t112.5 41.5t125 21t128 7l191 3l8 36 q7 30 10 52.5t3 42.5q0 66 -34 97t-93 31q-29 0 -60 -4t-58.5 -18.5t-50 -43t-34.5 -76.5l-263 31q16 67 52 121t94 92.5t138.5 59.5t186.5 21q207 0 303.5 -73t96.5 -222q0 -31 -8 -74t-16 -83l-71 -353q-3 -17 -5.5 -36.5t-2.5 -35.5q0 -24 10 -37t23 -19t26 -7.5t20 -1.5 q14 0 26.5 1t35.5 6zM711 503h-162q-117 -2 -184.5 -48t-67.5 -130q0 -39 12 -67.5t32 -46.5t46.5 -26.5t55.5 -8.5t64.5 11.5t70 38.5t64.5 72.5t47 112.5zM542 1183l6 31l247 288h277l-8 -43l-376 -276h-146z" />
<glyph unicode="&#xe2;" d="M10 0zM1065 12q-42 -16 -85 -19t-88 -3q-100 0 -154 42t-54 111q0 15 1 31.5t4 32.5h-6q-34 -53 -69 -95t-77.5 -71.5t-95.5 -45t-124 -15.5q-78 0 -135.5 25t-95.5 66.5t-57 95.5t-19 111q0 81 22.5 140t61.5 101t91.5 68.5t112.5 41.5t125 21t128 7l191 3l8 36 q7 30 10 52.5t3 42.5q0 66 -34 97t-93 31q-29 0 -60 -4t-58.5 -18.5t-50 -43t-34.5 -76.5l-263 31q16 67 52 121t94 92.5t138.5 59.5t186.5 21q207 0 303.5 -73t96.5 -222q0 -31 -8 -74t-16 -83l-71 -353q-3 -17 -5.5 -36.5t-2.5 -35.5q0 -24 10 -37t23 -19t26 -7.5t20 -1.5 q14 0 26.5 1t35.5 6zM711 503h-162q-117 -2 -184.5 -48t-67.5 -130q0 -39 12 -67.5t32 -46.5t46.5 -26.5t55.5 -8.5t64.5 11.5t70 38.5t64.5 72.5t47 112.5zM1049 1211l-5 -28h-150l-166 192h-4l-248 -192h-169l5 28l320 318h229z" />
<glyph unicode="&#xe3;" d="M10 0zM1065 12q-42 -16 -85 -19t-88 -3q-100 0 -154 42t-54 111q0 15 1 31.5t4 32.5h-6q-34 -53 -69 -95t-77.5 -71.5t-95.5 -45t-124 -15.5q-78 0 -135.5 25t-95.5 66.5t-57 95.5t-19 111q0 81 22.5 140t61.5 101t91.5 68.5t112.5 41.5t125 21t128 7l191 3l8 36 q7 30 10 52.5t3 42.5q0 66 -34 97t-93 31q-29 0 -60 -4t-58.5 -18.5t-50 -43t-34.5 -76.5l-263 31q16 67 52 121t94 92.5t138.5 59.5t186.5 21q207 0 303.5 -73t96.5 -222q0 -31 -8 -74t-16 -83l-71 -353q-3 -17 -5.5 -36.5t-2.5 -35.5q0 -24 10 -37t23 -19t26 -7.5t20 -1.5 q14 0 26.5 1t35.5 6zM711 503h-162q-117 -2 -184.5 -48t-67.5 -130q0 -39 12 -67.5t32 -46.5t46.5 -26.5t55.5 -8.5t64.5 11.5t70 38.5t64.5 72.5t47 112.5zM828 1183q-44 0 -84.5 19t-78 42.5t-71.5 42.5t-64 19q-26 0 -44.5 -8.5t-32.5 -24.5t-24.5 -38.5t-20.5 -51.5 h-136q11 45 29 96t49.5 95t80.5 73t122 29q45 0 86.5 -19t78.5 -42.5t70 -42.5t62 -19q25 0 43.5 8.5t32.5 24.5t25.5 39t21.5 51h135q-11 -45 -29 -96t-49.5 -95t-80 -73t-121.5 -29z" />
<glyph unicode="&#xe4;" d="M10 0zM1065 12q-42 -16 -85 -19t-88 -3q-100 0 -154 42t-54 111q0 15 1 31.5t4 32.5h-6q-34 -53 -69 -95t-77.5 -71.5t-95.5 -45t-124 -15.5q-78 0 -135.5 25t-95.5 66.5t-57 95.5t-19 111q0 81 22.5 140t61.5 101t91.5 68.5t112.5 41.5t125 21t128 7l191 3l8 36 q7 30 10 52.5t3 42.5q0 66 -34 97t-93 31q-29 0 -60 -4t-58.5 -18.5t-50 -43t-34.5 -76.5l-263 31q16 67 52 121t94 92.5t138.5 59.5t186.5 21q207 0 303.5 -73t96.5 -222q0 -31 -8 -74t-16 -83l-71 -353q-3 -17 -5.5 -36.5t-2.5 -35.5q0 -24 10 -37t23 -19t26 -7.5t20 -1.5 q14 0 26.5 1t35.5 6zM711 503h-162q-117 -2 -184.5 -48t-67.5 -130q0 -39 12 -67.5t32 -46.5t46.5 -26.5t55.5 -8.5t64.5 11.5t70 38.5t64.5 72.5t47 112.5zM784 1199l43 219h217l-43 -219h-217zM351 1199l42 219h214l-43 -219h-213z" />
<glyph unicode="&#xe5;" d="M10 0zM1065 12q-42 -16 -85 -19t-88 -3q-100 0 -154 42t-54 111q0 15 1 31.5t4 32.5h-6q-34 -53 -69 -95t-77.5 -71.5t-95.5 -45t-124 -15.5q-78 0 -135.5 25t-95.5 66.5t-57 95.5t-19 111q0 81 22.5 140t61.5 101t91.5 68.5t112.5 41.5t125 21t128 7l191 3l8 36 q7 30 10 52.5t3 42.5q0 66 -34 97t-93 31q-29 0 -60 -4t-58.5 -18.5t-50 -43t-34.5 -76.5l-263 31q16 67 52 121t94 92.5t138.5 59.5t186.5 21q207 0 303.5 -73t96.5 -222q0 -31 -8 -74t-16 -83l-71 -353q-3 -17 -5.5 -36.5t-2.5 -35.5q0 -24 10 -37t23 -19t26 -7.5t20 -1.5 q14 0 26.5 1t35.5 6zM711 503h-162q-117 -2 -184.5 -48t-67.5 -130q0 -39 12 -67.5t32 -46.5t46.5 -26.5t55.5 -8.5t64.5 11.5t70 38.5t64.5 72.5t47 112.5zM961 1431q0 -53 -20 -99.5t-54.5 -81t-81 -54t-98.5 -19.5t-98.5 19.5t-81 54t-54.5 81t-20 99.5q0 52 20 98.5 t54.5 81t81 54.5t98.5 20t98.5 -20t81 -54.5t54.5 -81t20 -98.5zM834 1431q0 26 -10 48.5t-27 39.5t-40.5 27t-49.5 10t-49 -10t-40 -27t-26.5 -39.5t-9.5 -48.5q0 -27 9.5 -50.5t26.5 -40.5t40 -27t49 -10t49.5 10t40.5 27t27 40.5t10 50.5z" />
<glyph unicode="&#xe6;" horiz-adv-x="1821" d="M1027 476q-4 -22 -5.5 -44t-1.5 -45q0 -106 46.5 -162.5t137.5 -56.5q42 0 75 13t59 35.5t45.5 53.5t33.5 67l245 -74q-30 -64 -68 -116.5t-93 -89.5t-132 -57t-184 -20q-153 0 -250.5 57.5t-143.5 161.5q-46 -72 -98 -115t-108 -66.5t-115.5 -30.5t-120.5 -7 q-78 0 -135.5 25t-95.5 66.5t-57 95.5t-19 111q0 81 22.5 140.5t61.5 102t91.5 69.5t112.5 42.5t125 21.5t128 6h191l8 36q7 30 10 52.5t3 42.5q0 66 -34 97t-93 31q-29 0 -60 -4t-58.5 -18.5t-50 -43t-34.5 -76.5l-263 31q16 67 52 121t94 92.5t138.5 59.5t186.5 21 q114 0 186.5 -31.5t113.5 -81.5q140 113 342 113q112 0 194 -30t136 -84.5t80 -130t26 -166.5q0 -45 -6.5 -103.5t-17.5 -111.5h-700zM743 500h-161q-113 0 -177 -46t-64 -129q0 -39 10 -67.5t28 -46.5t42.5 -26.5t53.5 -8.5t64.5 11.5t70 38.5t64.5 72.5t47 112.5z M1491 663q2 16 2.5 29t0.5 27q0 107 -49.5 156t-129.5 49q-34 0 -72 -11t-73.5 -40.5t-64 -80t-45.5 -129.5h431z" />
<glyph unicode="&#xe7;" d="M63 0zM536 173q83 0 137 52.5t86 155.5l271 -50q-24 -79 -65.5 -144t-103 -111t-146 -71t-195.5 -25q-116 0 -202 31t-142.5 87.5t-84.5 134.5t-28 172q0 40 3.5 87t14.5 92q25 111 63.5 192.5t86 139t102.5 94t113 57t117.5 28t116.5 7.5q107 0 185 -29t130.5 -78.5 t80 -115t33.5 -138.5l-284 -23q-5 90 -45.5 140.5t-121.5 50.5q-56 0 -97.5 -18.5t-73.5 -59t-57.5 -104t-48.5 -152.5q-4 -20 -8 -42.5t-7.5 -45t-5.5 -43t-2 -37.5q0 -121 45 -177.5t133 -56.5zM386 -425q-23 0 -50.5 1.5t-55.5 4.5l29 117q24 -4 44.5 -5.5t37.5 -1.5 q81 0 118 17.5t37 59.5q0 31 -26 47t-84 16h-25.5t-27.5 -2l98 171h141l-48 -83q70 -1 113.5 -33.5t43.5 -98.5q0 -97 -84 -153.5t-261 -56.5z" />
<glyph unicode="&#xe8;" d="M63 0zM358 476q-4 -22 -5.5 -44t-1.5 -45q0 -106 46.5 -162.5t137.5 -56.5q42 0 75 13t59 35.5t45.5 53.5t33.5 67l245 -74q-30 -64 -68 -116.5t-93 -89.5t-132 -57t-184 -20q-110 0 -194.5 31t-142 88t-87 138t-29.5 181q0 164 43.5 291t121 214.5t184.5 133t234 45.5 q112 0 194 -30t136 -84.5t80 -130t26 -166.5q0 -45 -6.5 -103.5t-17.5 -111.5h-700zM822 663q2 16 2.5 29t0.5 27q0 107 -49.5 156t-129.5 49q-34 0 -72 -11t-73.5 -40.5t-64 -80t-45.5 -129.5h431zM715 1183l-307 276l8 43h258l195 -288l-6 -31h-148z" />
<glyph unicode="&#xe9;" d="M63 0zM358 476q-4 -22 -5.5 -44t-1.5 -45q0 -106 46.5 -162.5t137.5 -56.5q42 0 75 13t59 35.5t45.5 53.5t33.5 67l245 -74q-30 -64 -68 -116.5t-93 -89.5t-132 -57t-184 -20q-110 0 -194.5 31t-142 88t-87 138t-29.5 181q0 164 43.5 291t121 214.5t184.5 133t234 45.5 q112 0 194 -30t136 -84.5t80 -130t26 -166.5q0 -45 -6.5 -103.5t-17.5 -111.5h-700zM822 663q2 16 2.5 29t0.5 27q0 107 -49.5 156t-129.5 49q-34 0 -72 -11t-73.5 -40.5t-64 -80t-45.5 -129.5h431zM524 1183l6 31l247 288h277l-8 -43l-376 -276h-146z" />
<glyph unicode="&#xea;" d="M63 0zM358 476q-4 -22 -5.5 -44t-1.5 -45q0 -106 46.5 -162.5t137.5 -56.5q42 0 75 13t59 35.5t45.5 53.5t33.5 67l245 -74q-30 -64 -68 -116.5t-93 -89.5t-132 -57t-184 -20q-110 0 -194.5 31t-142 88t-87 138t-29.5 181q0 164 43.5 291t121 214.5t184.5 133t234 45.5 q112 0 194 -30t136 -84.5t80 -130t26 -166.5q0 -45 -6.5 -103.5t-17.5 -111.5h-700zM822 663q2 16 2.5 29t0.5 27q0 107 -49.5 156t-129.5 49q-34 0 -72 -11t-73.5 -40.5t-64 -80t-45.5 -129.5h431zM1049 1211l-5 -28h-150l-166 192h-4l-248 -192h-169l5 28l320 318h229z " />
<glyph unicode="&#xeb;" d="M63 0zM358 476q-4 -22 -5.5 -44t-1.5 -45q0 -106 46.5 -162.5t137.5 -56.5q42 0 75 13t59 35.5t45.5 53.5t33.5 67l245 -74q-30 -64 -68 -116.5t-93 -89.5t-132 -57t-184 -20q-110 0 -194.5 31t-142 88t-87 138t-29.5 181q0 164 43.5 291t121 214.5t184.5 133t234 45.5 q112 0 194 -30t136 -84.5t80 -130t26 -166.5q0 -45 -6.5 -103.5t-17.5 -111.5h-700zM822 663q2 16 2.5 29t0.5 27q0 107 -49.5 156t-129.5 49q-34 0 -72 -11t-73.5 -40.5t-64 -80t-45.5 -129.5h431zM795 1199l43 219h217l-43 -219h-217zM362 1199l42 219h214l-43 -219h-213z " />
<glyph unicode="&#xec;" horiz-adv-x="569" d="M35 0zM35 0l210 1082h281l-211 -1082h-280zM405 1183l-307 276l8 43h258l195 -288l-6 -31h-148z" />
<glyph unicode="&#xed;" horiz-adv-x="569" d="M35 0zM35 0l210 1082h281l-211 -1082h-280zM258 1183l6 31l247 288h277l-8 -43l-376 -276h-146z" />
<glyph unicode="&#xee;" horiz-adv-x="569" d="M27 0zM35 0l210 1082h281l-211 -1082h-280zM769 1211l-5 -28h-150l-166 192h-4l-248 -192h-169l5 28l320 318h229z" />
<glyph unicode="&#xef;" horiz-adv-x="569" d="M35 0zM35 0l210 1082h281l-211 -1082h-280zM514 1199l43 219h217l-43 -219h-217zM81 1199l42 219h214l-43 -219h-213z" />
<glyph unicode="&#xf0;" horiz-adv-x="1251" d="M661 1305q-47 46 -100.5 92.5t-121.5 86.5h293q36 -19 72.5 -43.5t68.5 -50.5l295 109l-32 -176l-145 -54q44 -57 78 -117t57 -126t34.5 -140t11.5 -158q0 -168 -41 -306t-122.5 -236t-202 -152t-279.5 -54q-118 0 -206 33t-146.5 91t-87.5 136.5t-29 169.5 q0 125 39.5 229t115.5 180t185.5 118t250.5 42q31 0 64.5 -5t64.5 -13.5t58 -20t45 -24.5q-16 71 -49 139t-76 125l-277 -111l33 179zM658 787q-71 0 -127.5 -29t-96.5 -81.5t-61 -124t-21 -157.5q0 -41 11 -81t35.5 -71.5t63 -51t93.5 -19.5q67 0 124.5 33.5t99.5 92 t65.5 138t23.5 170.5q0 85 -53 133t-157 48z" />
<glyph unicode="&#xf1;" horiz-adv-x="1251" d="M35 0zM738 0l118 595q4 19 8.5 42t8.5 46t6.5 43.5t2.5 33.5q0 63 -38 96t-114 33q-47 0 -94 -20t-87.5 -57t-71 -89.5t-42.5 -116.5l-118 -606h-282l166 851q7 34 13.5 71.5t11.5 71t8.5 57.5t4.5 31h268q0 -5 -2.5 -27t-6 -50.5t-7.5 -58t-8 -49.5h3q30 42 66.5 79 t81.5 65t100.5 44t124.5 16q152 0 229 -73t77 -211q0 -18 -2.5 -41t-5.5 -45.5t-6.5 -43t-6.5 -34.5l-127 -653h-279zM919 1183q-44 0 -84.5 19t-78 42.5t-71.5 42.5t-64 19q-26 0 -44.5 -8.5t-32.5 -24.5t-24.5 -38.5t-20.5 -51.5h-136q11 45 29 96t49.5 95t80.5 73t122 29 q45 0 86.5 -19t78.5 -42.5t70 -42.5t62 -19q25 0 43.5 8.5t32.5 24.5t25.5 39t21.5 51h135q-11 -45 -29 -96t-49.5 -95t-80 -73t-121.5 -29z" />
<glyph unicode="&#xf2;" horiz-adv-x="1251" d="M63 0zM1185 683q0 -163 -49 -293.5t-136 -221.5t-206 -139.5t-259 -48.5q-107 0 -194 29.5t-149 86t-95.5 138t-33.5 185.5q0 155 46.5 281t131.5 215t203 137.5t260 48.5q118 0 208 -28t150.5 -82t91.5 -131.5t31 -176.5zM891 662q0 66 -14.5 113t-41.5 76.5t-65.5 43.5 t-86.5 14q-44 0 -89 -10.5t-85.5 -43.5t-74 -94t-56.5 -161q-11 -48 -15.5 -90.5t-4.5 -78.5q0 -72 15.5 -121t43.5 -80t66 -44.5t83 -13.5t89 10t84 42.5t73 93t56 162.5q11 52 16 95.5t7 86.5zM739 1183l-307 276l8 43h258l195 -288l-6 -31h-148z" />
<glyph unicode="&#xf3;" horiz-adv-x="1251" d="M63 0zM1185 683q0 -163 -49 -293.5t-136 -221.5t-206 -139.5t-259 -48.5q-107 0 -194 29.5t-149 86t-95.5 138t-33.5 185.5q0 155 46.5 281t131.5 215t203 137.5t260 48.5q118 0 208 -28t150.5 -82t91.5 -131.5t31 -176.5zM891 662q0 66 -14.5 113t-41.5 76.5t-65.5 43.5 t-86.5 14q-44 0 -89 -10.5t-85.5 -43.5t-74 -94t-56.5 -161q-11 -48 -15.5 -90.5t-4.5 -78.5q0 -72 15.5 -121t43.5 -80t66 -44.5t83 -13.5t89 10t84 42.5t73 93t56 162.5q11 52 16 95.5t7 86.5zM619 1183l6 31l247 288h277l-8 -43l-376 -276h-146z" />
<glyph unicode="&#xf4;" horiz-adv-x="1251" d="M63 0zM1185 683q0 -163 -49 -293.5t-136 -221.5t-206 -139.5t-259 -48.5q-107 0 -194 29.5t-149 86t-95.5 138t-33.5 185.5q0 155 46.5 281t131.5 215t203 137.5t260 48.5q118 0 208 -28t150.5 -82t91.5 -131.5t31 -176.5zM891 662q0 66 -14.5 113t-41.5 76.5t-65.5 43.5 t-86.5 14q-44 0 -89 -10.5t-85.5 -43.5t-74 -94t-56.5 -161q-11 -48 -15.5 -90.5t-4.5 -78.5q0 -72 15.5 -121t43.5 -80t66 -44.5t83 -13.5t89 10t84 42.5t73 93t56 162.5q11 52 16 95.5t7 86.5zM1102 1211l-5 -28h-150l-166 192h-4l-248 -192h-169l5 28l320 318h229z" />
<glyph unicode="&#xf5;" horiz-adv-x="1251" d="M63 0zM1185 683q0 -163 -49 -293.5t-136 -221.5t-206 -139.5t-259 -48.5q-107 0 -194 29.5t-149 86t-95.5 138t-33.5 185.5q0 155 46.5 281t131.5 215t203 137.5t260 48.5q118 0 208 -28t150.5 -82t91.5 -131.5t31 -176.5zM891 662q0 66 -14.5 113t-41.5 76.5t-65.5 43.5 t-86.5 14q-44 0 -89 -10.5t-85.5 -43.5t-74 -94t-56.5 -161q-11 -48 -15.5 -90.5t-4.5 -78.5q0 -72 15.5 -121t43.5 -80t66 -44.5t83 -13.5t89 10t84 42.5t73 93t56 162.5q11 52 16 95.5t7 86.5zM892 1183q-44 0 -84.5 19t-78 42.5t-71.5 42.5t-64 19q-26 0 -44.5 -8.5 t-32.5 -24.5t-24.5 -38.5t-20.5 -51.5h-136q11 45 29 96t49.5 95t80.5 73t122 29q45 0 86.5 -19t78.5 -42.5t70 -42.5t62 -19q25 0 43.5 8.5t32.5 24.5t25.5 39t21.5 51h135q-11 -45 -29 -96t-49.5 -95t-80 -73t-121.5 -29z" />
<glyph unicode="&#xf6;" horiz-adv-x="1251" d="M63 0zM1185 683q0 -163 -49 -293.5t-136 -221.5t-206 -139.5t-259 -48.5q-107 0 -194 29.5t-149 86t-95.5 138t-33.5 185.5q0 155 46.5 281t131.5 215t203 137.5t260 48.5q118 0 208 -28t150.5 -82t91.5 -131.5t31 -176.5zM891 662q0 66 -14.5 113t-41.5 76.5t-65.5 43.5 t-86.5 14q-44 0 -89 -10.5t-85.5 -43.5t-74 -94t-56.5 -161q-11 -48 -15.5 -90.5t-4.5 -78.5q0 -72 15.5 -121t43.5 -80t66 -44.5t83 -13.5t89 10t84 42.5t73 93t56 162.5q11 52 16 95.5t7 86.5zM858 1199l43 219h217l-43 -219h-217zM425 1199l42 219h214l-43 -219h-213z " />
<glyph unicode="&#xf7;" horiz-adv-x="1124" d="M462 961v233h238v-233h-238zM69 569v224h1027v-224h-1027zM462 170v233h238v-233h-238z" />
<glyph unicode="&#xf8;" horiz-adv-x="1251" d="M42 -38l131 152q-54 56 -82 132t-28 173q0 155 46.5 281t131.5 215t203 137.5t260 48.5q82 0 150 -14t123 -40l60 69h189l-134 -156q93 -105 93 -277q0 -163 -49 -293.5t-136 -221.5t-206 -139.5t-259 -48.5q-138 0 -244 49l-58 -67h-191zM358 431q0 -50 8 -93l455 527 q-26 23 -61 33.5t-77 10.5q-44 0 -89 -10.5t-85.5 -43.5t-74 -94t-56.5 -161q-11 -48 -15.5 -90.5t-4.5 -78.5zM891 662q0 17 -1 31.5t-3 28.5l-444 -516q26 -18 57 -26t66 -8q45 0 89 10t84 42.5t73 93t56 162.5q11 52 16 95.5t7 86.5z" />
<glyph unicode="&#xf9;" horiz-adv-x="1251" d="M85 0zM512 1082l-118 -595q-4 -19 -8.5 -42t-8.5 -46t-6.5 -43t-2.5 -34q0 -63 38 -96t114 -33q47 0 94.5 20t88 57t70.5 89.5t42 116.5l118 606h282l-166 -851q-7 -34 -13.5 -71.5t-11.5 -71t-8.5 -57.5t-4.5 -31h-268q0 5 2.5 27t6 50.5t7.5 58t8 49.5h-3 q-30 -42 -66 -79t-81 -65t-101 -44t-125 -16q-152 0 -229 73t-77 211q0 18 2.5 41t5.5 45.5t6.5 43.5t6.5 34l127 653h279zM733 1183l-307 276l8 43h258l195 -288l-6 -31h-148z" />
<glyph unicode="&#xfa;" horiz-adv-x="1251" d="M85 0zM512 1082l-118 -595q-4 -19 -8.5 -42t-8.5 -46t-6.5 -43t-2.5 -34q0 -63 38 -96t114 -33q47 0 94.5 20t88 57t70.5 89.5t42 116.5l118 606h282l-166 -851q-7 -34 -13.5 -71.5t-11.5 -71t-8.5 -57.5t-4.5 -31h-268q0 5 2.5 27t6 50.5t7.5 58t8 49.5h-3 q-30 -42 -66 -79t-81 -65t-101 -44t-125 -16q-152 0 -229 73t-77 211q0 18 2.5 41t5.5 45.5t6.5 43.5t6.5 34l127 653h279zM604 1183l6 31l247 288h277l-8 -43l-376 -276h-146z" />
<glyph unicode="&#xfb;" horiz-adv-x="1251" d="M85 0zM512 1082l-118 -595q-4 -19 -8.5 -42t-8.5 -46t-6.5 -43t-2.5 -34q0 -63 38 -96t114 -33q47 0 94.5 20t88 57t70.5 89.5t42 116.5l118 606h282l-166 -851q-7 -34 -13.5 -71.5t-11.5 -71t-8.5 -57.5t-4.5 -31h-268q0 5 2.5 27t6 50.5t7.5 58t8 49.5h-3 q-30 -42 -66 -79t-81 -65t-101 -44t-125 -16q-152 0 -229 73t-77 211q0 18 2.5 41t5.5 45.5t6.5 43.5t6.5 34l127 653h279zM1111 1211l-5 -28h-150l-166 192h-4l-248 -192h-169l5 28l320 318h229z" />
<glyph unicode="&#xfc;" horiz-adv-x="1251" d="M85 0zM512 1082l-118 -595q-4 -19 -8.5 -42t-8.5 -46t-6.5 -43t-2.5 -34q0 -63 38 -96t114 -33q47 0 94.5 20t88 57t70.5 89.5t42 116.5l118 606h282l-166 -851q-7 -34 -13.5 -71.5t-11.5 -71t-8.5 -57.5t-4.5 -31h-268q0 5 2.5 27t6 50.5t7.5 58t8 49.5h-3 q-30 -42 -66 -79t-81 -65t-101 -44t-125 -16q-152 0 -229 73t-77 211q0 18 2.5 41t5.5 45.5t6.5 43.5t6.5 34l127 653h279zM853 1199l43 219h217l-43 -219h-217zM420 1199l42 219h214l-43 -219h-213z" />
<glyph unicode="&#xfd;" d="M0 0zM570 -57q-56 -87 -106.5 -155t-106 -115.5t-120.5 -72.5t-149 -25q-52 0 -93.5 4.5t-79.5 13.5l38 196q18 -4 42.5 -6.5t44.5 -2.5q38 0 70.5 10t63.5 33t61 60.5t61 92.5l28 48l-212 1058h291l71 -497q2 -11 5.5 -37t7 -59.5t7.5 -70.5t7 -70.5t5.5 -59.5t2.5 -37 q5 11 16.5 36.5t27 58t32.5 68.5t32.5 69t28.5 59.5t19 38.5l259 501h300zM527 1183l6 31l247 288h277l-8 -43l-376 -276h-146z" />
<glyph unicode="&#xfe;" horiz-adv-x="1251" d="M728 907q-52 0 -100 -16.5t-88 -56.5t-71.5 -108t-51.5 -172q-8 -44 -12.5 -82t-4.5 -71q0 -56 14.5 -98.5t41 -71.5t63.5 -43.5t82 -14.5q51 0 92.5 16t74.5 55t58.5 105.5t43.5 166.5q9 51 14 95.5t5 82.5q0 106 -38.5 159.5t-122.5 53.5zM521 1057q-5 -26 -14 -67.5 t-20 -76.5h6q35 49 72 84.5t80 59t93 34.5t110 11q81 0 144 -25t105.5 -71t65 -111.5t22.5 -146.5q0 -59 -5 -116.5t-16 -115.5q-28 -142 -72 -243.5t-106.5 -166.5t-143 -95.5t-180.5 -30.5q-125 0 -203 52t-110 146h-2q-3 -19 -6.5 -42t-7.5 -48t-8.5 -50t-9.5 -48 l-81 -415h-280l369 1909h281z" />
<glyph unicode="&#xff;" d="M0 0zM588 -57q-56 -87 -106.5 -155t-106 -115.5t-120.5 -72.5t-149 -25q-52 0 -93.5 4.5t-79.5 13.5l38 196q18 -4 42.5 -6.5t44.5 -2.5q38 0 70.5 10t63.5 33t61 60.5t61 92.5l28 48l-212 1058h291l71 -497q2 -11 5.5 -37t7 -59.5t7.5 -70.5t7 -70.5t5.5 -59.5t2.5 -37 q5 11 16.5 36.5t27 58t32.5 68.5t32.5 69t28.5 59.5t19 38.5l259 501h300zM807 1196l43 219h217l-43 -219h-217zM374 1196l42 219h214l-43 -219h-213z" />
<glyph unicode="&#x131;" horiz-adv-x="569" d="M35 0l210 1082h281l-211 -1082h-280z" />
<glyph unicode="&#x152;" horiz-adv-x="2048" d="M917 0q-19 -3 -45 -4.5t-55 -3t-58 -2t-53 -0.5q-151 0 -264 42t-188.5 118.5t-113 184t-37.5 238.5q0 91 20 191q30 150 103.5 271.5t181 207t245 131.5t296.5 46q39 0 75 -1.5t63 -4t44 -4t19 -1.5h949l-44 -227h-667l-69 -355h606l-43 -221h-606l-73 -375h708 l-45 -231h-949zM736 222q52 0 100 6.5t73 13.5l180 927q-16 5 -35.5 8.5t-40 5.5t-40 3.5t-34.5 1.5q-214 0 -344.5 -118.5t-174.5 -337.5q-8 -43 -12.5 -86.5t-4.5 -82.5q0 -87 24 -151.5t67.5 -106.5t105 -62.5t136.5 -20.5z" />
<glyph unicode="&#x153;" horiz-adv-x="1933" d="M1163 476q-4 -22 -5.5 -44t-1.5 -45q0 -106 46.5 -162.5t137.5 -56.5q42 0 75 13t59 35.5t45.5 53.5t33.5 67l245 -74q-30 -64 -68 -116.5t-93 -89.5t-132 -57t-184 -20q-126 0 -217.5 39.5t-148.5 112.5q-37 -41 -85 -70t-103 -47t-115 -26.5t-122 -8.5 q-107 0 -194 29.5t-149 86t-95.5 138t-33.5 185.5q0 155 46.5 281t131.5 215t203 137.5t260 48.5q64 0 117 -8.5t97.5 -26t82.5 -44t72 -62.5q75 70 172 106t211 36q112 0 194 -30t136 -84.5t80 -130t26 -166.5q0 -45 -6.5 -103.5t-17.5 -111.5h-700zM886 662 q0 66 -14.5 113t-41.5 76.5t-65.5 43.5t-86.5 14q-44 0 -89 -10.5t-85.5 -43.5t-74 -94t-56.5 -161q-11 -48 -15.5 -90.5t-4.5 -78.5q0 -72 16 -121t43.5 -80t66 -44.5t83.5 -13.5t89 10t83.5 42.5t72.5 93t56 162.5q8 35 12 66q1 8 2 15l2 14q3 23 4.5 44t2.5 43zM1627 663 q2 16 2.5 29t0.5 27q0 107 -49.5 156t-129.5 49q-34 0 -72 -11t-73.5 -40.5t-64 -80t-45.5 -129.5h431z" />
<glyph unicode="&#x178;" horiz-adv-x="1366" d="M143 0zM807 578l-112 -578h-294l112 578l-370 831h292l259 -605l474 605h323zM927 1530l43 219h217l-43 -219h-217zM494 1530l42 219h214l-43 -219h-213z" />
<glyph unicode="&#x2c6;" horiz-adv-x="682" d="M818 1211l-5 -28h-150l-166 192h-4l-248 -192h-169l5 28l320 318h229z" />
<glyph unicode="&#x2da;" horiz-adv-x="682" d="M735 1390q0 -53 -20 -99.5t-54.5 -81t-81 -54t-98.5 -19.5t-98.5 19.5t-81 54t-54.5 81t-20 99.5q0 52 20 98.5t54.5 81t81 54.5t98.5 20t98.5 -20t81 -54.5t54.5 -81t20 -98.5zM608 1390q0 26 -10 48.5t-27 39.5t-40.5 27t-49.5 10t-49 -10t-40 -27t-26.5 -39.5 t-9.5 -48.5q0 -27 9.5 -50.5t26.5 -40.5t40 -27t49 -10t49.5 10t40.5 27t27 40.5t10 50.5z" />
<glyph unicode="&#x2dc;" horiz-adv-x="682" d="M624 1183q-44 0 -84.5 19t-78 42.5t-71.5 42.5t-64 19q-26 0 -44.5 -8.5t-32.5 -24.5t-24.5 -38.5t-20.5 -51.5h-136q11 45 29 96t49.5 95t80.5 73t122 29q45 0 86.5 -19t78.5 -42.5t70 -42.5t62 -19q25 0 43.5 8.5t32.5 24.5t25.5 39t21.5 51h135q-11 -45 -29 -96 t-49.5 -95t-80 -73t-121.5 -29z" />
<glyph unicode="&#x2000;" horiz-adv-x="917" />
<glyph unicode="&#x2001;" horiz-adv-x="1835" />
<glyph unicode="&#x2002;" horiz-adv-x="917" />
<glyph unicode="&#x2003;" horiz-adv-x="1835" />
<glyph unicode="&#x2004;" horiz-adv-x="611" />
<glyph unicode="&#x2005;" horiz-adv-x="458" />
<glyph unicode="&#x2006;" horiz-adv-x="305" />
<glyph unicode="&#x2007;" horiz-adv-x="305" />
<glyph unicode="&#x2008;" horiz-adv-x="229" />
<glyph unicode="&#x2009;" horiz-adv-x="367" />
<glyph unicode="&#x200a;" horiz-adv-x="101" />
<glyph unicode="&#x2010;" horiz-adv-x="682" d="M56 409l47 244h520l-47 -244h-520z" />
<glyph unicode="&#x2011;" horiz-adv-x="682" d="M56 409l47 244h520l-47 -244h-520z" />
<glyph unicode="&#x2012;" horiz-adv-x="682" d="M56 409l47 244h520l-47 -244h-520z" />
<glyph unicode="&#x2013;" d="M44 448l32 203h1014l-32 -203h-1014z" />
<glyph unicode="&#x2014;" horiz-adv-x="2048" d="M-19 448l38 203h2048l-39 -203h-2047z" />
<glyph unicode="&#x2018;" horiz-adv-x="569" d="M189 831l38 195q13 67 31 122t41 101t51 85.5t60 74.5h183q-35 -35 -66.5 -74t-57 -80t-43.5 -82t-26 -81h127l-51 -261h-287z" />
<glyph unicode="&#x2019;" horiz-adv-x="569" d="M555 1214q-13 -67 -31 -121.5t-41 -101t-51 -85.5t-61 -75h-182q70 72 123.5 154.5t69.5 163.5h-127l51 260h287z" />
<glyph unicode="&#x201a;" horiz-adv-x="569" d="M349 66q-13 -67 -31 -122t-41 -101.5t-50.5 -85.5t-59.5 -74h-185q35 35 67 74t58 80t44.5 82t25.5 81h-129l51 260h288z" />
<glyph unicode="&#x201c;" horiz-adv-x="1024" d="M617 831l38 195q13 67 31.5 122t41.5 101t51.5 85.5t61.5 74.5h182q-35 -35 -66.5 -74t-57 -80t-43.5 -82t-26 -81h127l-51 -261h-289zM189 831l38 195q13 67 31 122t41 101t51 85.5t60 74.5h183q-35 -35 -66.5 -74t-57 -80t-43.5 -82t-26 -81h127l-51 -261h-287z" />
<glyph unicode="&#x201d;" horiz-adv-x="1024" d="M985 1217q-13 -68 -31 -123.5t-41.5 -102t-51 -85.5t-60.5 -75h-184q36 36 68 75t57.5 79.5t43.5 82t26 81.5h-127l51 260h287zM555 1217q-13 -68 -31 -123.5t-41 -102t-51 -85.5t-61 -75h-182q70 72 123.5 154.5t69.5 163.5h-127l51 260h287z" />
<glyph unicode="&#x201e;" horiz-adv-x="1024" d="M785 66q-13 -67 -31 -122t-41 -101.5t-51 -85.5t-60 -74h-184q35 35 67 74t57.5 80t44 82t25.5 81h-127l51 260h287zM355 66q-13 -67 -31 -122t-40.5 -101.5t-50.5 -85.5t-61 -74h-182q35 35 66.5 74t57 80t43.5 82t25 81h-127l51 260h287z" />
<glyph unicode="&#x2022;" horiz-adv-x="717" d="M676 676q0 -61 -23.5 -114.5t-63.5 -93.5t-93.5 -63.5t-114.5 -23.5q-60 0 -113 23.5t-92.5 63.5t-62.5 93.5t-23 114.5t23 114.5t62.5 93t92.5 62.5t113 23q61 0 114.5 -23t93.5 -62.5t63.5 -93t23.5 -114.5z" />
<glyph unicode="&#x2026;" horiz-adv-x="2048" d="M133 0l59 305h289l-59 -305h-289zM787 0l59 305h289l-59 -305h-289zM1437 0l59 305h289l-59 -305h-289z" />
<glyph unicode="&#x202f;" horiz-adv-x="367" />
<glyph unicode="&#x2039;" horiz-adv-x="682" d="M265 139l-192 361l14 71l323 367h239l-6 -41l-329 -366l188 -353l-5 -39h-232z" />
<glyph unicode="&#x203a;" horiz-adv-x="682" d="M417 938l192 -361l-14 -71l-323 -367h-239l6 41l329 366l-188 353l5 39h232z" />
<glyph unicode="&#x2044;" horiz-adv-x="342" d="M-231 0h-197l1086 1409h199z" />
<glyph unicode="&#x205f;" horiz-adv-x="458" />
<glyph unicode="&#x20ac;" d="M803 1210q-34 0 -71.5 -9t-73.5 -39.5t-68 -89t-56 -157.5h296l-29 -149h-301q-7 -26 -12 -55t-7 -52h310l-29 -149h-304q-3 -37 -3 -69q0 -125 44 -183.5t120 -58.5q69 0 117 33.5t75 94.5l243 -40q-23 -69 -60 -125t-90.5 -96t-124 -62t-160.5 -22t-171.5 24.5 t-143.5 85t-98.5 162.5t-36.5 256h-141l31 149h127q3 24 7.5 52.5t11.5 54.5h-126l32 149h134q42 147 103.5 246t139.5 159t169 85t191 25t168 -24t110.5 -65.5t62.5 -96t24 -114.5l-257 -47q-7 40 -20.5 64.5t-32.5 38.5t-44 19t-56 5z" />
<glyph unicode="&#x2122;" horiz-adv-x="2048" d="M1119 768h-166v641h248l139 -301q9 -20 20.5 -47.5t21.5 -52.5q11 -29 23 -60q12 31 23 61q10 26 21 52.5t20 46.5l144 301h243v-641h-165v340q0 14 1 42t3 57q2 34 4 73q-16 -39 -30 -75q-12 -31 -25 -61.5t-21 -47.5l-154 -328h-131l-149 328q-8 19 -21 49.5t-26 60.5 q-15 35 -30 74q2 -41 4 -76q2 -30 2.5 -57.5t0.5 -38.5v-340zM608 1270v-502h-180v502h-243v139h674v-139h-251z" />
<glyph unicode="&#xe000;" horiz-adv-x="1080" d="M0 1080h1080v-1080h-1080v1080z" />
<glyph horiz-adv-x="682" d="M605 1530l-304 235l9 43h238l203 -247l-7 -31h-139z" />
<glyph horiz-adv-x="682" d="M277 1530l7 31l270 247h267l-9 -43l-386 -235h-149z" />
<glyph horiz-adv-x="682" d="M907 1559l-5 -29h-149l-174 151h-4l-240 -151h-169l5 29l311 276h229z" />
<glyph horiz-adv-x="682" d="M0 0z" />
</font>
</defs>
</svg>
