<?xml version="1.0" standalone="no"?>
<!DOCTYPE svg PUBLIC "-//W3C//DTD SVG 1.1//EN" "http://www.w3.org/Graphics/SVG/1.1/DTD/svg11.dtd" >
<svg xmlns="http://www.w3.org/2000/svg">
<metadata></metadata>
<defs>
<font id="liberation_serifitalic" horiz-adv-x="1024" >
<font-face units-per-em="2048" ascent="1638" descent="-410" />
<missing-glyph horiz-adv-x="512" />
<glyph horiz-adv-x="2048" />
<glyph horiz-adv-x="2048" />
<glyph unicode="&#xd;" horiz-adv-x="512" />
<glyph unicode=" "  horiz-adv-x="512" />
<glyph unicode="&#x09;" horiz-adv-x="512" />
<glyph unicode="&#xa0;" horiz-adv-x="512" />
<glyph unicode="!" horiz-adv-x="682" d="M400 92q0 -25 -9.5 -47t-25.5 -38.5t-38.5 -26t-47.5 -9.5q-26 0 -48 9.5t-38 26t-25.5 38.5t-9.5 47t9.5 47.5t25.5 38.5t38 25.5t48 9.5q25 0 47.5 -9.5t38.5 -25.5t25.5 -38.5t9.5 -47.5zM374 1341h218l-229 -952h-94z" />
<glyph unicode="&#x22;" horiz-adv-x="860" d="M670 1341h197l-147 -481h-74zM285 1341h197l-147 -481h-74z" />
<glyph unicode="#" d="M984 524l-18 -103h-260l-153 -421h-104l153 421h-310l-152 -421h-105l153 421h-171l17 103h192l112 307h-250l18 103h268l148 407h104l-147 -407h309l148 407h104l-148 -407h164l-18 -103h-182l-111 -307h239zM331 524h309l111 307h-309z" />
<glyph unicode="$" d="M76 371h65l1 -191q16 -23 42 -44.5t59.5 -37.5t74.5 -26t86 -11l102 577q-54 27 -109 58t-98.5 71.5t-71 94.5t-27.5 128q0 91 30 158.5t85.5 112t135.5 68t181 26.5l23 128h82l-23 -128q82 -2 149.5 -12t127.5 -25l-49 -279h-65l-5 171q-27 22 -71.5 38.5t-101.5 21.5 l-85 -483q54 -29 112 -63t105.5 -78.5t78 -101t30.5 -130.5q0 -195 -117.5 -306.5t-350.5 -125.5l-24 -138h-82l24 136q-119 2 -211 27.5t-155 65.5zM762 379q0 44 -14 77t-38.5 59t-57.5 46.5t-70 39.5l-95 -535q135 17 205 97.5t70 215.5zM375 1025q0 -37 12.5 -66.5 t34.5 -53.5t51.5 -44t64.5 -38l79 447q-64 -5 -109.5 -25.5t-75 -53t-43.5 -75t-14 -91.5z" />
<glyph unicode="%" horiz-adv-x="1706" d="M318 -20h-110l1192 1382h111zM778 995q-32 -179 -129 -275.5t-266 -96.5q-134 0 -200 67t-66 195q0 26 2.5 53t7.5 57q32 180 128.5 273.5t263.5 93.5q134 0 202 -65t68 -194q0 -47 -11 -108zM622 995q13 71 13 129q0 80 -31 122t-104 42q-49 0 -84.5 -19.5t-61 -57 t-43 -92t-29.5 -124.5q-7 -41 -11 -76t-4 -65q0 -76 29 -117t99 -41q49 0 86 20.5t64 58.5t46 93.5t31 126.5zM1579 346q-32 -180 -129 -276.5t-266 -96.5q-134 0 -200.5 66.5t-66.5 194.5q0 26 3 54t8 58q32 180 128.5 273.5t263.5 93.5q134 0 201.5 -65t67.5 -195 q0 -24 -2.5 -51t-7.5 -56zM1424 346q7 36 10 67.5t3 59.5q0 81 -31.5 123.5t-104.5 42.5q-49 0 -84.5 -19.5t-61 -57t-42.5 -92t-29 -124.5q-7 -41 -11 -76t-4 -65q0 -76 29 -117t99 -41q49 0 86 20.5t64 58.5t46 93.5t31 126.5z" />
<glyph unicode="&#x26;" horiz-adv-x="1593" d="M1120 1102q0 -78 -35 -132t-91 -92.5t-126.5 -66.5t-140.5 -53l344 -402q72 97 118.5 188.5t66.5 182.5l-137 27l9 53h457l-9 -53l-144 -27q-20 -45 -48 -101t-65 -116.5t-81.5 -121.5t-95.5 -116l168 -194l162 -24l-10 -54h-344l-113 137q-43 -32 -89 -60t-100.5 -50 t-120 -34.5t-147.5 -12.5q-120 0 -207 26.5t-143.5 74t-83.5 113.5t-27 146q0 65 18 117t49 93.5t71.5 73t85 56t90.5 43t88 33.5q-19 27 -38.5 57.5t-35 65.5t-25 74t-9.5 84q0 73 26.5 133t76 103t121.5 66t163 23q95 0 162 -22.5t109 -59.5t61.5 -83.5t19.5 -94.5z M538 687q-45 -19 -90 -46t-81.5 -67.5t-59 -97t-22.5 -133.5q0 -63 18.5 -114t54.5 -87.5t89 -56t121 -19.5q54 0 105.5 11.5t98 32t88 48.5t76.5 61zM561 1071q0 -63 30.5 -122.5t81.5 -125.5q59 22 110.5 44.5t89 52.5t59 71t21.5 99q0 92 -50 142t-135 50 q-105 0 -156 -57t-51 -154z" />
<glyph unicode="'" horiz-adv-x="438" d="M269 1341h197l-147 -481h-74z" />
<glyph unicode="(" horiz-adv-x="682" d="M251 131q0 -75 11 -144t37 -130.5t69 -114.5t107 -94l-15 -84q-96 56 -168.5 120t-121 142t-73.5 173t-25 214q0 66 6 134.5t20 146.5q33 189 90 330.5t141.5 250.5t198 192t259.5 154l-15 -84q-124 -65 -206.5 -157.5t-136 -203t-85 -233.5t-53.5 -249 q-17 -94 -28.5 -185t-11.5 -178z" />
<glyph unicode=")" horiz-adv-x="682" d="M-97 -436l15 84q124 65 206 158t135.5 203.5t85 234t54.5 250.5q17 93 28 183.5t11 176.5q0 75 -11 144t-36.5 130.5t-69 114.5t-107.5 94l15 84q96 -57 169 -120.5t122 -141t74 -172.5t25 -215q0 -122 -27 -278q-33 -189 -90.5 -331t-142 -251.5t-198 -193 t-258.5 -154.5z" />
<glyph unicode="*" d="M197 1065l64 143l315 -194l-43 327h156l-47 -327l317 190l64 -141l-332 -98l332 -97l-64 -141l-317 188l47 -325h-156l43 328l-315 -195l-64 143l328 99z" />
<glyph unicode="+" horiz-adv-x="1382" d="M760 629v-426h-103v426h-424v102h424v426h103v-426h426v-102h-426z" />
<glyph unicode="," horiz-adv-x="512" d="M383 42q0 -59 -18 -113t-56.5 -100t-98 -83t-142.5 -61v77q91 29 138.5 71t47.5 97q0 28 -19.5 42t-43 28.5t-43 36t-19.5 63.5q0 54 34 82.5t87 28.5q28 0 52.5 -10.5t42.5 -31.5t28 -53t10 -74z" />
<glyph unicode="-" horiz-adv-x="682" d="M76 406v153h532v-153h-532z" />
<glyph unicode="." horiz-adv-x="512" d="M327 92q0 -25 -9.5 -47t-25.5 -38.5t-38.5 -26t-47.5 -9.5q-26 0 -48 9.5t-38 26t-25.5 38.5t-9.5 47t9.5 47.5t25.5 38.5t38 25.5t48 9.5q25 0 47.5 -9.5t38.5 -25.5t25.5 -38.5t9.5 -47.5z" />
<glyph unicode="/" horiz-adv-x="569" d="M16 -20h-110l711 1370h108z" />
<glyph unicode="0" d="M972 676q-30 -168 -77.5 -298t-115.5 -218.5t-157.5 -134t-202.5 -45.5q-166 0 -253 103.5t-87 315.5q0 59 6 130.5t19 146.5q30 166 78 294t116 215t156 132t198 45q166 0 256 -100t90 -311q0 -58 -6.5 -130.5t-19.5 -144.5zM790 654q8 48 14.5 95.5t10.5 91.5t6 82.5 t2 68.5q0 68 -11 122t-34.5 91.5t-59 57t-84.5 19.5q-74 0 -129 -40.5t-97 -117.5t-73.5 -190t-56.5 -257q-18 -103 -23.5 -182t-5.5 -150q0 -64 10.5 -117t33 -90.5t56.5 -58t82 -20.5q73 0 129 39t98.5 114.5t74 186.5t57.5 255z" />
<glyph unicode="1" d="M534 80l270 -27l-10 -53h-721l10 53l279 27l193 1094l-288 -97l10 53l430 222h52z" />
<glyph unicode="2" d="M821 0h-820l26 147q111 83 212 154.5t187.5 139t156.5 135t119.5 142.5t76.5 160t27 189q0 107 -58 156t-170 49q-30 0 -60.5 -4.5t-59 -12t-53.5 -17t-44 -19.5l-64 -164h-66l45 258q80 18 155.5 30.5t161.5 12.5q97 0 169.5 -20.5t120.5 -58.5t72 -91t24 -119 q0 -96 -30 -178.5t-83.5 -157.5t-128.5 -144.5t-165.5 -139t-193.5 -141.5t-212 -152h682z" />
<glyph unicode="3" d="M357 -20q-49 0 -99.5 5t-98 13.5t-89 19.5t-73.5 23l37 282h66l12 -188q18 -14 47 -26.5t63 -23t69.5 -16.5t65.5 -6q97 0 165 20.5t111 61t63 101.5t20 143q0 124 -68.5 188t-200.5 74l-115 8l14 82l145 9q77 5 130 28t85.5 62t46.5 92.5t14 118.5q0 110 -52 165.5 t-163 55.5q-30 0 -60 -4.5t-58 -12t-53 -17t-44 -19.5l-64 -164h-66l45 258q34 9 67.5 17t70 14t78 9t91.5 3q95 0 168.5 -20.5t123.5 -58t76 -91.5t26 -121q0 -149 -87.5 -243t-270.5 -120q69 -10 125 -34t95.5 -61.5t60.5 -87.5t21 -111q0 -106 -41.5 -186t-114.5 -134 t-171.5 -81t-212.5 -27z" />
<glyph unicode="4" d="M754 308l-55 -308h-162l55 308h-587l20 120l751 920h160l-160 -910h202l-22 -130h-202zM709 979q5 26 12 60t14 66q8 37 17 75l-603 -742h465z" />
<glyph unicode="5" d="M490 784q106 0 184 -22.5t129.5 -65.5t77 -104t25.5 -138q0 -113 -35.5 -201t-105 -149t-172 -92.5t-237.5 -31.5q-99 0 -180 12.5t-144 30.5l38 282h66l12 -188q16 -10 41.5 -20t55.5 -17.5t62.5 -12t62.5 -4.5q99 0 166.5 28t109 78t59.5 120.5t18 155.5q0 52 -12 98.5 t-42 81.5t-80 55t-126 20q-59 0 -114.5 -8t-86.5 -16h-96l117 665h680l-27 -153h-590l-75 -428q19 4 39.5 8t46 7.5t57.5 6t76 2.5z" />
<glyph unicode="6" d="M477 -20q-92 0 -165 31t-124 91t-78 146.5t-27 197.5q0 131 22.5 249.5t63 219.5t98.5 182.5t129 139t154 88.5t173 31q81 0 155.5 -16t135.5 -37l-41 -231h-66l-11 140q-40 27 -86 43.5t-94 16.5q-86 0 -156.5 -44.5t-124.5 -121.5t-91.5 -180t-58.5 -220q29 17 65.5 34 t78 31t86 23t89.5 9q82 0 146 -21t108 -60.5t67 -96t23 -126.5q0 -104 -28.5 -198t-87 -165t-147 -113.5t-208.5 -42.5zM260 411q0 -95 17 -162t46 -109t69 -61.5t87 -19.5q74 0 127.5 33.5t88 92t51 136.5t16.5 168q0 109 -48.5 163.5t-151.5 54.5q-33 0 -69 -5t-73 -13.5 t-74 -20t-70 -23.5q-8 -57 -12 -115.5t-4 -118.5z" />
<glyph unicode="7" d="M274 1024h-66l56 317h830l-14 -77l-821 -1264h-139l797 1188h-579z" />
<glyph unicode="8" d="M1001 1092q0 -80 -21 -143.5t-56.5 -111.5t-82 -79.5t-98.5 -46.5q86 -30 135 -99.5t49 -171.5q0 -111 -30 -197t-91.5 -144.5t-156 -88.5t-223.5 -30q-195 0 -289 81.5t-94 231.5q0 169 80 271.5t228 146.5q-64 28 -106.5 87.5t-42.5 150.5q0 96 27 173t83 130 t141.5 81.5t201.5 28.5q177 0 261.5 -70t84.5 -200zM438 59q93 0 153.5 28.5t96 79.5t49 122.5t13.5 157.5q0 48 -11.5 88t-37.5 69.5t-67 45.5t-100 16q-87 0 -147 -27t-97 -76.5t-53.5 -119t-16.5 -154.5q0 -53 12.5 -95.5t39 -72.5t68 -46t98.5 -16zM551 754 q79 0 131 28.5t83.5 75.5t44.5 108t13 126q0 44 -9.5 79.5t-30.5 60t-55.5 37.5t-83.5 13q-79 0 -130.5 -26.5t-81.5 -72t-42 -107t-12 -131.5q0 -40 9 -74.5t29 -60.5t53.5 -41t81.5 -15z" />
<glyph unicode="9" d="M597 1356q92 0 165 -29.5t124 -88t78 -146t27 -202.5q0 -128 -21 -244.5t-60.5 -218t-94.5 -184t-123.5 -141t-148 -90.5t-167.5 -32q-93 0 -172 14t-144 40l39 221h66l11 -140q34 -20 86.5 -35.5t109.5 -15.5q88 0 158 44.5t121.5 122t86.5 180.5t53 220 q-29 -17 -65.5 -34.5t-78.5 -31.5t-87 -23t-90 -9q-82 0 -146 24t-108 68t-67 106.5t-23 139.5q0 103 30 192t89 154t147.5 102t204.5 37zM814 925q0 95 -17 162t-46 109t-69.5 61.5t-86.5 19.5q-74 0 -127.5 -30.5t-88 -84.5t-51 -127.5t-16.5 -158.5q0 -126 55.5 -186.5 t153.5 -60.5q78 0 147 17t132 44q7 57 10.5 116t3.5 119z" />
<glyph unicode=":" horiz-adv-x="682" d="M379 92q0 -25 -9.5 -47t-25.5 -38.5t-38.5 -26t-47.5 -9.5q-26 0 -48 9.5t-38 26t-25.5 38.5t-9.5 47t9.5 47.5t25.5 38.5t38 25.5t48 9.5q25 0 47.5 -9.5t38.5 -25.5t25.5 -38.5t9.5 -47.5zM520 839q0 -25 -9.5 -47t-25.5 -38.5t-38.5 -26t-47.5 -9.5q-26 0 -48 9.5 t-38 26t-25.5 38.5t-9.5 47t9.5 47.5t25.5 38.5t38 25.5t48 9.5q25 0 47.5 -9.5t38.5 -25.5t25.5 -38.5t9.5 -47.5z" />
<glyph unicode=";" horiz-adv-x="682" d="M546 839q0 -25 -9.5 -47t-25.5 -38.5t-38.5 -26t-47.5 -9.5q-26 0 -48 9.5t-38 26t-25.5 38.5t-9.5 47t9.5 47.5t25.5 38.5t38 25.5t48 9.5q25 0 47.5 -9.5t38.5 -25.5t25.5 -38.5t9.5 -47.5zM410 42q0 -59 -18 -113t-56.5 -100t-98 -83t-142.5 -61v77q91 29 138.5 71 t47.5 97q0 28 -19.5 42t-43 28.5t-43 36t-19.5 63.5q0 54 34 82.5t87 28.5q28 0 52.5 -10.5t42.5 -31.5t28 -53t10 -74z" />
<glyph unicode="&#x3c;" horiz-adv-x="1382" d="M232 655v50l953 469v-103l-809 -391l809 -391v-103z" />
<glyph unicode="=" horiz-adv-x="1382" d="M1186 526v-102h-953v102h953zM1186 936v-102h-953v102h953z" />
<glyph unicode="&#x3e;" horiz-adv-x="1382" d="M232 186v103l809 391l-809 391v103l953 -469v-50z" />
<glyph unicode="?" d="M502 350h-80l33 334l148 29q115 22 170.5 103t55.5 235q0 52 -11 93t-35 69.5t-61.5 43.5t-91.5 15q-29 0 -60 -5.5t-60.5 -15.5t-56.5 -23t-46 -28l-50 -164h-66l31 254q70 29 152 47.5t167 18.5q186 0 276 -74t90 -219q0 -84 -21.5 -155t-68.5 -127t-120.5 -96 t-176.5 -62l-59 -13zM545 92q0 -25 -9.5 -47t-25.5 -38.5t-38 -26t-47 -9.5q-26 0 -48 9.5t-38 26t-25.5 38.5t-9.5 47t9.5 47.5t25.5 38.5t38 25.5t48 9.5q25 0 47 -9.5t38 -25.5t25.5 -38.5t9.5 -47.5z" />
<glyph unicode="@" horiz-adv-x="1884" d="M1469 -184q-54 -42 -114.5 -79t-133 -65t-158 -44.5t-188.5 -16.5q-181 0 -321.5 58.5t-237 160.5t-146.5 239t-50 293q0 143 32.5 273t93 241t147 201.5t193.5 154t232.5 98t265.5 34.5q175 0 307 -43.5t220.5 -123.5t133 -193t44.5 -252q0 -103 -28 -197t-77 -174.5 t-116 -146.5t-145 -112.5t-164 -71.5t-173 -25q-12 0 -23.5 2t-20.5 8t-15 16t-6 25q0 28 2.5 62.5t5.5 62.5q-27 -27 -63.5 -58t-78.5 -57t-88 -43.5t-92 -17.5q-72 0 -111.5 54.5t-39.5 145.5q0 83 15 164.5t44 155.5t73 137t101 109q48 38 92 62.5t90.5 38t98.5 18.5 t115 5h35.5t29.5 -0.5t27.5 -2t29.5 -3.5l-114 -530q-5 -24 -9.5 -49t-7.5 -48t-4.5 -43t-1.5 -34q0 -12 2 -23.5t9.5 -20t22 -13.5t40.5 -5q65 0 122 25t103.5 68.5t83 102.5t61 126.5t37.5 140t13 144.5q0 129 -41 228t-117.5 166.5t-185 102.5t-242.5 35 q-128 0 -238.5 -33.5t-202 -93.5t-162 -144.5t-119 -186t-74 -218t-25.5 -241.5q0 -132 39 -253t119.5 -213.5t202.5 -148t288 -55.5q95 0 171.5 14t139.5 37.5t116.5 54.5t102.5 66zM1150 807q-10 1 -19 2q-8 1 -16 1.5t-14 0.5q-29 0 -63.5 -3t-70 -11.5t-70.5 -23.5 t-63 -40q-29 -26 -55 -69.5t-45.5 -99.5t-31 -121t-11.5 -134q0 -71 20 -110t60 -39q36 0 73.5 11t73 27.5t66 37t51.5 38.5z" />
<glyph unicode="A" horiz-adv-x="1251" d="M264 53l-10 -53h-366l10 53l112 27l682 1272h191l250 -1272l125 -27l-11 -53h-475l11 53l143 27l-64 387h-528l-205 -387zM723 1208l-344 -651h467z" />
<glyph unicode="B" horiz-adv-x="1251" d="M639 754q102 0 171 17t111 52.5t59.5 91t17.5 132.5q0 104 -65 154t-214 50h-158l-88 -497h166zM615 84q109 0 181 22.5t114.5 64.5t59.5 101.5t17 133.5q0 136 -88.5 197t-255.5 61h-186l-100 -574q51 -2 99 -3q41 -2 85 -2.5t74 -0.5zM19 0l10 53l133 27l209 1182 l-168 26l10 53h551q123 0 207.5 -20.5t136.5 -58t75 -89.5t23 -114q0 -76 -25 -135.5t-69 -103t-106 -70.5t-135 -37q69 -6 128.5 -27t103 -58t68.5 -91t25 -127q0 -215 -145.5 -315.5t-435.5 -100.5q-56 0 -105.5 1t-95.5 2t-90.5 2t-91.5 1h-213z" />
<glyph unicode="C" horiz-adv-x="1366" d="M699 -19q-143 0 -252 39t-183 110t-112 171t-38 222q0 195 62 350t172.5 262t263.5 164t335 57q137 0 243 -15.5t195 -35.5l-45 -293h-65v174q-62 43 -150 66.5t-184 23.5q-136 0 -251 -54.5t-198.5 -155.5t-130.5 -244t-47 -319q0 -95 22.5 -176t71.5 -139.5t125 -91.5 t183 -33q62 0 121 10t110.5 27t94.5 38.5t74 45.5l72 201h65l-61 -315q-47 -17 -104.5 -33t-121.5 -28.5t-132 -20t-135 -7.5z" />
<glyph unicode="D" horiz-adv-x="1479" d="M1238 785q0 125 -36 213.5t-103 144.5t-162.5 82t-213.5 26h-162l-204 -1157q60 -3 126 -5.5t138 -2.5q153 0 268.5 49t193 139.5t116.5 220t39 290.5zM784 1341q162 0 286 -36t208 -106t127 -172t43 -235q0 -180 -56.5 -326.5t-162 -251t-257.5 -161.5t-343 -57 q-57 0 -125 0.5t-134 1.5t-124.5 1.5t-97.5 0.5h-171l9 53l176 27l208 1182l-167 26l9 53h572z" />
<glyph unicode="E" horiz-adv-x="1251" d="M-14 53l175 27l209 1182l-168 26l10 53h1006l-57 -321h-66l6 217q-31 4 -76 7t-92 4.5t-88.5 2t-64.5 0.5h-219l-93 -524h362l60 160h64l-73 -412h-64l-2 162h-362l-97 -547h264q62 0 117 1.5t99.5 3.5t76.5 5t48 6l101 248h66l-82 -354h-1070z" />
<glyph unicode="F" horiz-adv-x="1251" d="M446 602l-92 -522l219 -27l-10 -53h-574l10 53l162 27l209 1182l-168 26l10 53h1056l-57 -321h-66l6 217q-31 4 -76 7t-92 4.5t-88.5 2t-64.5 0.5h-269l-99 -559h445l59 160h61l-72 -412h-61l-3 162h-445z" />
<glyph unicode="G" horiz-adv-x="1479" d="M1215 86q-62 -24 -123 -43.5t-125 -33t-132.5 -20.5t-144.5 -7q-138 0 -245.5 37.5t-181 107.5t-112 170t-38.5 226q0 201 64 356t176 261t264.5 161t329.5 55q129 0 237.5 -16t209.5 -44l-51 -288h-67l3 166q-61 49 -146 75.5t-192 26.5q-125 0 -239 -50.5t-200 -148.5 t-137 -242.5t-51 -331.5q0 -110 28.5 -193t79.5 -138t122.5 -82.5t158.5 -27.5q54 0 103 8.5t92 22t78 29.5t59 31l63 353l-167 26l9 54h495l-9 -54l-136 -26z" />
<glyph unicode="H" horiz-adv-x="1479" d="M-22 0l8 53l176 27l207 1182l-166 26l8 53h537l-8 -53l-179 -26l-92 -527h631l92 527l-166 26l8 53h537l-8 -53l-178 -26l-207 -1182l166 -27l-9 -53h-536l8 53l178 27l99 565h-631l-99 -565l166 -27l-8 -53h-534z" />
<glyph unicode="I" horiz-adv-x="682" d="M369 80l166 -27l-8 -53h-535l8 53l176 27l207 1182l-166 26l8 53h537l-8 -53l-178 -26z" />
<glyph unicode="J" horiz-adv-x="909" d="M631 1262l-167 26l9 53h516l-9 -53l-157 -26l-146 -830q-22 -125 -61.5 -211t-92.5 -139.5t-118 -77.5t-138 -24q-69 0 -132 13.5t-104 32.5l42 232h65l5 -139q7 -12 22 -21.5t34 -16.5t40 -11t42 -4q140 0 173 190z" />
<glyph unicode="K" horiz-adv-x="1366" d="M1454 1341l-10 -53l-156 -26l-556 -455l447 -727l134 -27l-10 -53h-307l-411 686l-143 -117l-88 -489l188 -27l-10 -53h-556l10 53l175 27l209 1182l-168 26l10 53h537l-10 -53l-176 -26l-98 -558l678 558l-119 26l10 53h420z" />
<glyph unicode="L" horiz-adv-x="1139" d="M774 1288l-211 -26l-208 -1176h214q125 0 195 7t102 13l111 279h65l-86 -385h-980l10 53l175 27l209 1182l-168 26l10 53h572z" />
<glyph unicode="M" horiz-adv-x="1706" d="M721 0h-35l-231 1153l-189 -1073l176 -27l-10 -53h-456l10 53l175 27l209 1182l-168 26l10 53h382l206 -1023l598 1023h402l-10 -53l-176 -26l-209 -1182l168 -27l-10 -53h-544l10 53l184 27l189 1073z" />
<glyph unicode="N" horiz-adv-x="1366" d="M1170 1262l-176 26l10 53h457l-10 -53l-176 -26l-223 -1262h-97l-481 1206l-199 -1126l176 -27l-10 -53h-456l10 53l175 27l209 1182l-168 26l10 53h388l399 -1005z" />
<glyph unicode="O" horiz-adv-x="1479" d="M1231 832q0 101 -27 183t-76 140t-117.5 89.5t-152.5 31.5q-92 0 -169 -36t-138.5 -96t-108 -138.5t-77.5 -164.5t-46.5 -173.5t-15.5 -164.5q0 -100 26.5 -181t74.5 -138t115.5 -88t150.5 -31q92 0 169.5 35.5t140 94.5t109.5 137t78.5 163.5t47.5 172t16 164.5z M663 -20q-123 0 -226 39t-177 109.5t-115.5 168.5t-41.5 217q0 113 23 219t68 199.5t110.5 171.5t151 134t189.5 87t226 31q123 0 226 -39t177 -109.5t115.5 -169t41.5 -216.5q0 -97 -19.5 -197.5t-60 -194t-102.5 -175.5t-147.5 -143t-194.5 -96.5t-244 -35.5z" />
<glyph unicode="P" horiz-adv-x="1251" d="M612 616q195 0 291.5 89.5t96.5 267.5q0 143 -72.5 210.5t-218.5 67.5h-148l-112 -635h163zM433 526l-79 -446l219 -27l-10 -53h-574l10 53l162 27l209 1182l-168 26l10 53h537q119 0 204 -26t140 -72.5t80.5 -112t25.5 -144.5q0 -100 -32 -184.5t-100.5 -145.5 t-175.5 -95.5t-257 -34.5h-201z" />
<glyph unicode="Q" horiz-adv-x="1479" d="M665 -20q-122 1 -223 40.5t-174.5 110t-114 168t-40.5 215.5q0 113 23 219t68 199.5t110.5 171.5t151 134t189.5 87t226 31q123 0 226 -39t177 -109.5t115.5 -169t41.5 -216.5q0 -84 -14.5 -171t-44.5 -170t-76.5 -159t-109.5 -139t-144 -109.5t-180 -70.5l21 -31 q36 -53 66.5 -92t62 -64t66 -37t76.5 -12q7 0 19 0.5t24.5 1t23 1t16.5 1.5l-12 -66q-12 -5 -35 -11t-51.5 -12t-59 -10t-57.5 -4q-57 0 -100 14.5t-81 46t-75 81.5t-81 122zM1241 832q0 101 -27 183t-76 140t-117.5 89.5t-152.5 31.5q-92 0 -169 -36t-138.5 -96 t-108 -138.5t-77.5 -164.5t-46.5 -173.5t-15.5 -164.5q0 -100 26.5 -181t74.5 -138t115.5 -88t150.5 -31q92 0 169.5 35.5t140 94.5t109.5 137t78.5 163.5t47.5 172t16 164.5z" />
<glyph unicode="R" horiz-adv-x="1251" d="M444 588l-90 -508l179 -27l-10 -53h-534l10 53l162 27l209 1182l-168 26l10 53h532q117 0 201.5 -23t139.5 -65.5t81.5 -102.5t26.5 -134q0 -83 -23.5 -148.5t-68.5 -114.5t-110 -83t-148 -54l227 -536l147 -27l-10 -53h-308l-246 588h-209zM616 678q89 0 159.5 21.5 t119 63.5t74.5 104t26 143q0 121 -72 181t-214 60h-148l-101 -573h156z" />
<glyph unicode="S" d="M76 371h65l1 -191q16 -24 44.5 -45.5t65.5 -38t80.5 -26t90.5 -9.5q85 0 148.5 20.5t106.5 59t64.5 92.5t21.5 122q0 54 -24 94t-64 72t-90.5 59t-103.5 54.5t-103.5 59t-90.5 73t-64 95.5t-24 127q0 92 32.5 161t93 114.5t147 68.5t194.5 23q99 0 177.5 -10.5 t146.5 -27.5l-49 -279h-65l-5 171q-32 26 -89 44t-131 18q-73 0 -125.5 -19t-86 -52.5t-49.5 -78.5t-16 -97q0 -50 24.5 -87.5t64 -68t90.5 -57t103.5 -54.5t103.5 -60t90.5 -73t64 -94.5t24.5 -124.5q0 -99 -32.5 -178t-97.5 -134t-163 -84.5t-230 -29.5 q-126 0 -226.5 25.5t-166.5 67.5z" />
<glyph unicode="T" horiz-adv-x="1139" d="M176 0l10 53l217 27l207 1175h-51q-65 0 -112 -1.5t-81 -4.5t-58 -6.5t-43 -7.5l-64 -209h-67l56 315h1070l-56 -315h-68l10 209q-35 7 -106 12.5t-188 5.5h-49l-207 -1173l209 -27l-10 -53h-619z" />
<glyph unicode="U" horiz-adv-x="1479" d="M1299 1262l-175 26l9 53h457l-9 -53l-177 -26l-141 -801q-16 -92 -56.5 -178.5t-111 -153.5t-173 -108t-243.5 -41q-233 0 -355 94.5t-122 273.5q0 26 3 55.5t7 49.5l143 809l-167 26l9 53h536l-9 -53l-177 -26l-141 -805q-5 -27 -7.5 -52.5t-2.5 -49.5q0 -60 17 -109 t53 -83t93 -52.5t137 -18.5q112 0 193 30t136.5 80t87.5 115t44 136z" />
<glyph unicode="V" horiz-adv-x="1251" d="M1448 1341l-10 -53l-131 -26l-727 -1293h-51l-295 1293l-127 26l10 53h493l-10 -53l-169 -26l218 -979l537 979l-152 26l11 53h403z" />
<glyph unicode="W" horiz-adv-x="1706" d="M1731 1262l-596 -1293h-63l-146 898l-418 -898h-65l-195 1293l-113 26l9 53h467l-9 -53l-161 -26l140 -936l426 921h46l151 -923l419 938l-165 26l9 53h394l-9 -53z" />
<glyph unicode="X" horiz-adv-x="1251" d="M751 753l239 -673l148 -27l-10 -53h-513l10 53l164 27l-175 507l-397 -507l162 -27l-10 -53h-437l10 53l151 27l480 606l-204 576l-147 26l10 53h493l-10 -53l-144 -26l140 -409l319 409l-132 26l10 53h409l-10 -53l-152 -26z" />
<glyph unicode="Y" horiz-adv-x="1139" d="M688 528l-79 -448l209 -27l-10 -53h-619l10 53l217 27l78 442l-230 740l-147 26l10 53h547l-10 -53l-194 -26l188 -627l393 627l-176 26l10 53h436l-10 -53l-151 -26z" />
<glyph unicode="Z" horiz-adv-x="1139" d="M42 94l865 1161h-200q-131 0 -218 -6t-125 -14l-68 -211h-69l56 317h873l-16 -86l-873 -1171h240q65 0 130 3.5t121 9t98 11t61 9.5l104 256h70l-93 -373h-973z" />
<glyph unicode="[" horiz-adv-x="797" d="M118 -274l299 1695h456l-8 -47l-305 -41l-268 -1519l290 -41l-8 -47h-456z" />
<glyph unicode="\" horiz-adv-x="569" d="M158 1350h98l214 -1370h-101z" />
<glyph unicode="]" horiz-adv-x="797" d="M-49 -274l8 47l303 41l268 1519l-289 41l8 47h456l-299 -1695h-455z" />
<glyph unicode="^" horiz-adv-x="864" d="M500 1341h49l428 -952h-103l-350 809l-350 -809h-102z" />
<glyph unicode="_" d="M-16 -264v102h1056v-102h-1056z" />
<glyph unicode="`" horiz-adv-x="682" d="M610 1118l-307 268l6 37h203l158 -272l-5 -33h-55z" />
<glyph unicode="a" d="M789 70l113 -25l-8 -45h-285l29 156q-84 -88 -161 -132.5t-148 -44.5q-57 0 -106 21.5t-85 63.5t-56.5 104.5t-20.5 144.5q0 86 19 167.5t54.5 154t85.5 133t112 104t135 68t153 24.5q66 0 121.5 -11t106.5 -31q3 2 7 5q3 2 7 5t9 7q10 7 22 17h54zM760 837 q-19 13 -36 22t-35.5 15t-39 8.5t-46.5 2.5q-84 0 -151.5 -49.5t-114.5 -128t-72 -175.5t-25 -193q0 -63 14 -107.5t36.5 -73t52 -41.5t61.5 -13q33 0 66 11.5t64.5 31t61 44.5t55.5 52z" />
<glyph unicode="b" d="M305 1352l-133 24l8 45h300l-74 -441q-3 -20 -7.5 -45.5t-10 -52t-11 -52t-10.5 -43.5q37 38 77.5 70.5t81.5 56.5t82 37.5t79 13.5q58 0 108.5 -21.5t87.5 -63.5t58 -104.5t21 -144.5q0 -86 -19 -167.5t-54 -154t-85.5 -133t-113.5 -104t-137 -68t-157 -24.5 q-37 0 -77.5 4.5t-82 14.5t-82.5 26t-78 39zM248 107q29 -24 70 -36t91 -12q83 0 151.5 47t118 123.5t77 175t27.5 200.5q0 112 -46.5 173.5t-124.5 61.5q-31 0 -64 -10.5t-66 -29.5t-65.5 -44t-62.5 -55z" />
<glyph unicode="c" horiz-adv-x="909" d="M774 142q-25 -23 -63.5 -51t-87 -52.5t-105.5 -41.5t-118 -17q-84 0 -147.5 25.5t-105.5 72t-63 110.5t-21 142q0 101 22.5 187.5t61.5 157t91.5 124.5t112.5 91t124.5 56t128.5 19q38 0 79 -4.5t79 -12t70.5 -17t54.5 -18.5l-45 -262h-55l-16 174q-29 29 -70 46t-98 17 q-71 0 -136.5 -40t-115.5 -112.5t-80.5 -173.5t-30.5 -222q0 -68 14.5 -116.5t41.5 -79.5t65 -45.5t85 -14.5q85 0 159 29t139 71z" />
<glyph unicode="d" d="M783 941q1 12 4 34.5t7 47t7.5 47.5t6.5 38l43 244l-154 24l8 45h324l-240 -1351l113 -25l-8 -45h-285l29 156q-84 -88 -161 -132.5t-148 -44.5q-60 0 -109 23t-84 66.5t-54.5 106.5t-19.5 142q0 86 19 167.5t54 153.5t84.5 131.5t111.5 103t134.5 67.5t152.5 24 q50 0 90.5 -6t74.5 -17zM760 837q-35 23 -72 36t-90 13q-54 0 -101 -23t-87 -62.5t-71.5 -92.5t-53.5 -114t-33.5 -126t-11.5 -129q0 -63 14 -107.5t36.5 -73t52 -41.5t60.5 -13q56 0 121.5 36.5t126.5 102.5z" />
<glyph unicode="e" horiz-adv-x="909" d="M863 760q0 -65 -41 -123t-119.5 -104.5t-194 -78t-264.5 -41.5q-1 -9 -2.5 -28t-1.5 -45q0 -49 9.5 -95t33.5 -82t65 -57.5t104 -21.5q90 0 166 30.5t142 69.5l29 -42q-32 -27 -75 -56t-93.5 -52.5t-106.5 -38.5t-114 -15q-85 0 -148 24.5t-105 69.5t-63 110t-21 146 q0 89 20 170.5t56 152t86 128t108.5 98.5t124 63.5t133.5 22.5q64 0 114.5 -15.5t85.5 -43t53.5 -65t18.5 -81.5zM252 476q109 8 191 34.5t136.5 65t81.5 86t27 98.5q0 56 -30.5 92t-88.5 36q-59 0 -111 -37.5t-93.5 -96.5t-70.5 -132.5t-42 -145.5z" />
<glyph unicode="f" horiz-adv-x="569" d="M189 -436h-166l225 1292h-162l8 49l170 39l12 66q40 223 134.5 327.5t255.5 104.5q45 0 79 -5.5t60 -13.5l-35 -196h-49l-19 114q-29 21 -84 21q-35 0 -59.5 -15.5t-43 -48t-32 -82.5t-26.5 -120l-29 -156h209l-14 -84h-209z" />
<glyph unicode="g" d="M418 104q34 0 69.5 12.5t69.5 32.5t64.5 45t54.5 49l110 618q-24 6 -43 11t-37.5 8t-39.5 4.5t-48 1.5q-80 0 -148 -46t-117.5 -122t-77 -175t-27.5 -204q0 -50 10.5 -93t31.5 -74.5t53 -49.5t75 -18zM662 160q-20 -22 -54.5 -53t-77.5 -59.5t-91.5 -48.5t-96.5 -20 q-66 0 -117 24.5t-85.5 68.5t-52.5 105.5t-18 135.5q0 89 20 171.5t57 155t88.5 132t114.5 102.5t135.5 66.5t151.5 23.5q34 0 77 -3.5t88 -9t87.5 -13t75.5 -15.5l-168 -958q-19 -108 -55.5 -184.5t-92.5 -124.5t-134 -70t-180 -22q-54 0 -105 7t-94.5 17.5t-78 23 t-55.5 23.5l18 228h45l36 -126q36 -35 93.5 -57t139.5 -22q74 0 125.5 21.5t85 58t52 85t27.5 102.5z" />
<glyph unicode="h" d="M311 1352l-118 24l8 45h288l-88 -493q-4 -21 -9 -49t-9.5 -54t-9 -47.5t-6.5 -28.5q34 45 74 84.5t85 68.5t93 46t99 17q46 0 83.5 -12t64 -38t41 -66t14.5 -95q0 -12 -2.5 -32.5t-6.5 -44.5t-8 -49.5t-8 -47.5l-88 -511l131 -24l-8 -45h-301l102 582q4 22 8 46t7.5 47 t5.5 42t2 31q0 45 -24 73t-76 28q-42 0 -86 -19t-84.5 -49.5t-75.5 -69.5t-59 -78l-111 -633h-165z" />
<glyph unicode="i" horiz-adv-x="569" d="M292 70l157 -25l-8 -45h-327l153 870l-129 25l8 45h299zM507 1247q0 -22 -8.5 -41.5t-23.5 -34.5t-35 -23.5t-42 -8.5t-41.5 8.5t-34.5 23.5t-23.5 34.5t-8.5 41.5t8.5 42t23.5 35t34.5 23.5t41.5 8.5t42 -8.5t35 -23.5t23.5 -35t8.5 -42z" />
<glyph unicode="j" horiz-adv-x="569" d="M285 -39q-19 -106 -50.5 -181.5t-75 -123.5t-98.5 -70t-120 -22q-45 0 -88 9.5t-72 20.5l33 187h47l15 -110q11 -11 28 -19t43 -8q28 0 52 12t44 42t37 81.5t31 130.5l170 960l-137 25l8 45h307zM519 1247q0 -22 -8.5 -41.5t-23.5 -34.5t-35 -23.5t-42 -8.5t-41.5 8.5 t-34.5 23.5t-23.5 34.5t-8.5 41.5t8.5 42t23.5 35t34.5 23.5t41.5 8.5t42 -8.5t35 -23.5t23.5 -35t8.5 -42z" />
<glyph unicode="k" horiz-adv-x="909" d="M299 1352l-135 24l8 45h305l-172 -968l428 415l-94 27l8 45h292l-8 -45l-81 -23l-294 -281l243 -523l98 -23l-8 -45h-236l-218 479l-148 -139l-62 -340h-166z" />
<glyph unicode="l" horiz-adv-x="569" d="M287 70l157 -25l-8 -45h-327l237 1352l-129 24l8 45h299z" />
<glyph unicode="m" horiz-adv-x="1479" d="M873 746q33 47 72 87t80 69.5t83.5 46t83.5 16.5q84 0 132.5 -53.5t48.5 -154.5q0 -15 -2 -36t-5.5 -45t-7.5 -49t-8 -47l-88 -510l131 -25l-9 -45h-301l103 582q4 21 8 45.5t7.5 47.5t5.5 42t2 31q0 45 -21 72.5t-66 27.5q-23 0 -51 -12t-57 -32.5t-56.5 -47.5 t-50.5 -57t-39 -62t-21 -61l-99 -576h-166l102 582q4 21 8 45.5t8 47.5t6.5 42t2.5 31q0 45 -22 72.5t-69 27.5q-23 0 -51 -12t-57.5 -32.5t-58 -47.5t-52 -57t-39.5 -62t-21 -61l-99 -576h-166l153 870l-118 25l8 45h278l-28 -194q33 47 72 87t81 69.5t84.5 46t83.5 16.5 q88 0 136.5 -55.5t48.5 -163.5z" />
<glyph unicode="n" d="M755 748q0 45 -24 73t-76 28q-42 0 -86 -19.5t-85 -50.5t-76 -70.5t-59 -78.5l-110 -630h-166l153 871l-118 25l8 45h278l-27 -192q38 49 79.5 89t86 68t91 43.5t94.5 15.5q46 0 83.5 -12t64 -38t41 -66t14.5 -95q0 -12 -2.5 -32.5t-6.5 -44.5t-8 -49.5t-8 -47.5 l-88 -511l131 -24l-8 -45h-301l102 582q4 22 8 46t7.5 47t5.5 42t2 31z" />
<glyph unicode="o" d="M237 340q0 -135 52.5 -206.5t146.5 -71.5q69 0 132.5 41.5t112 114t78 172t29.5 216.5q0 138 -52.5 209.5t-150.5 71.5q-68 0 -131 -41t-111 -113.5t-77 -173t-29 -219.5zM427 -20q-81 0 -148.5 27t-116 78t-75 124t-26.5 165q0 117 37.5 224t107 188.5t168.5 130 t223 48.5q81 0 148.5 -27t116 -78t75 -124t26.5 -165q0 -117 -37.5 -224t-107 -188.5t-168.5 -130t-223 -48.5z" />
<glyph unicode="p" d="M233 2q-1 -12 -3 -27.5t-4 -32t-4.5 -30.5t-3.5 -23l-44 -254l160 -24l-8 -47h-446l8 47l121 24l219 1235l-103 25l8 45h265l-19 -152q85 86 164.5 131.5t150.5 45.5q57 0 106 -21.5t85 -63.5t56.5 -104.5t20.5 -144.5q0 -86 -18.5 -167.5t-53.5 -154t-85 -133t-112 -104 t-135 -68t-155 -24.5q-20 0 -43.5 1.5t-47 4.5t-44.5 7t-35 9zM257 107q18 -14 39.5 -23.5t44 -15t44.5 -7.5t40 -2q57 0 106 23.5t89 64.5t70.5 95t51 114.5t31 124.5t10.5 124q0 63 -13.5 107.5t-36.5 73t-52.5 41.5t-61.5 13q-26 0 -57.5 -10t-65 -28t-67 -43.5 t-63.5 -57.5z" />
<glyph unicode="q" d="M419 107q35 0 71 5t69.5 14.5t63.5 22.5t54 29l121 683q-49 13 -98.5 20t-105.5 7q-81 0 -146 -45.5t-110.5 -121.5t-70 -174.5t-24.5 -203.5q0 -50 9.5 -93.5t30.5 -75t54.5 -49.5t81.5 -18zM671 107q-20 -15 -54 -36.5t-77 -42t-91.5 -34.5t-98.5 -14q-137 0 -209.5 85 t-72.5 253q0 133 39 251t112.5 206t179.5 139t239 51q34 0 78.5 -3.5t91 -9.5t90.5 -13.5t78 -15.5l-233 -1288l121 -24l-8 -47h-291l69 381q7 38 16 78.5t21 83.5z" />
<glyph unicode="r" horiz-adv-x="797" d="M724 965q20 0 44 -2.5t35 -5.5l-44 -246h-43l-38 127q-44 0 -88 -18t-85 -48.5t-79 -70.5t-70 -85l-107 -616h-166l153 870l-118 25l8 45h277l-31 -212q40 60 84.5 105t89.5 74t90.5 43.5t87.5 14.5z" />
<glyph unicode="s" horiz-adv-x="797" d="M692 276q0 -151 -96 -223.5t-291 -72.5q-90 0 -161 20.5t-119 41.5l41 226h45l17 -137q26 -28 73.5 -50t107.5 -22q45 0 85 9t70 29.5t47 55t17 85.5q0 52 -29.5 87t-73.5 62.5t-95.5 52.5t-95.5 57.5t-73.5 77.5t-29.5 113q0 75 27.5 128t74 86t107 48t127.5 15 q72 0 139 -10.5t129 -24.5l-37 -209h-47l-14 108q-28 25 -71.5 40.5t-94.5 15.5q-82 0 -131 -37.5t-49 -116.5q0 -49 29.5 -82t74.5 -60.5t96.5 -54t96.5 -60.5t74.5 -81.5t29.5 -116.5z" />
<glyph unicode="t" horiz-adv-x="569" d="M264 174q0 -45 22.5 -67.5t57.5 -22.5q43 0 79 8t73 22l21 -47q-51 -36 -111.5 -61.5t-137.5 -25.5q-42 0 -74 13.5t-53.5 37.5t-32 57.5t-10.5 73.5q0 29 5 66t11 71l99 557h-123l8 45l133 39l137 213h64l-37 -213h215l-16 -84h-215l-97 -549q-8 -41 -13 -76t-5 -57z " />
<glyph unicode="u" d="M268 193q0 -45 24 -73t76 -28q42 0 86 19t84.5 49.5t75.5 69.5t59 78l111 632h166l-153 -870l118 -25l-8 -45h-278l27 193q-38 -49 -79.5 -89t-86 -68.5t-91 -44t-94.5 -15.5q-46 0 -83.5 12t-64 38t-41 65.5t-14.5 95.5q0 12 2.5 32t6 44t8 49.5t8.5 48.5l88 510 l-111 24l8 45h281l-102 -581q-4 -22 -8 -46t-7.5 -47t-5.5 -42t-2 -31z" />
<glyph unicode="v" horiz-adv-x="909" d="M687 614q35 57 49.5 106t14.5 87q0 37 -21 59t-45 29l8 45h190q9 -8 17.5 -25t8.5 -38q0 -32 -16 -85.5t-67 -134.5l-423 -677h-73l-189 890l-113 25l9 45h256l145 -732z" />
<glyph unicode="w" horiz-adv-x="1366" d="M900 -20h-66l-124 619l-318 -619h-70l-171 890l-102 25l8 45h245l131 -707l309 601h75l122 -605l197 389q30 60 43.5 105.5t13.5 83.5q0 37 -21 59t-45 29l8 45h190q9 -8 17.5 -25t8.5 -38q0 -32 -18.5 -84t-64.5 -136z" />
<glyph unicode="x" horiz-adv-x="909" d="M248 236q-32 -31 -52.5 -54t-32.5 -40.5t-16.5 -31.5t-4.5 -26q0 -16 11.5 -25t30.5 -14l-8 -45h-185q-6 5 -11 16.5t-5 26.5q0 14 7.5 30.5t23.5 37.5t42 48t64 62l273 254l-172 395l-107 25l8 45h248l145 -358l124 118q64 61 90 96t26 60q0 8 -5.5 14t-14.5 10.5 t-19.5 8l-19.5 6.5l8 45h177q9 -7 15 -17.5t6 -25.5q0 -59 -138 -190l-214 -201l192 -440l116 -21l-8 -45h-256l-167 400z" />
<glyph unicode="y" horiz-adv-x="909" d="M52 940h256l145 -732l235 406q33 58 48.5 106.5t15.5 86.5q0 37 -21 59t-45 29l8 45h190q9 -8 17.5 -25t8.5 -38q0 -32 -17 -84.5t-66 -135.5l-396 -667q-59 -100 -111.5 -180t-105 -136t-110 -86t-126.5 -30q-26 0 -45.5 1t-36 3.5t-32.5 5.5t-35 8l37 203h45l16 -96 q25 -23 82 -23q43 0 83.5 25t77 64.5t68 87.5t56.5 93l45 82l-183 858l-112 25z" />
<glyph unicode="z" horiz-adv-x="797" d="M-23 0l9 45l564 815h-149q-27 0 -55.5 -2.5t-53.5 -7t-45 -11t-32 -14.5l-55 -135h-47l45 250h612l-8 -49l-562 -811h197q56 0 109 12.5t88 34.5l76 147h47l-72 -274h-668z" />
<glyph unicode="{" horiz-adv-x="819" d="M367 -274q-109 0 -163 56.5t-54 156.5q0 35 8 81l52 295q4 20 5.5 37t1.5 34q0 43 -12 74t-35 51t-56.5 30t-76.5 12l8 45q51 1 93.5 15t75 42.5t54.5 72.5t33 106l52 294q25 141 103.5 217t209.5 76h135l-8 -47h-62q-91 0 -139 -54.5t-67 -160.5l-59 -330 q-9 -50 -31 -92t-53 -74.5t-70 -54t-82 -30.5v-3q70 -17 111 -68t41 -129q0 -14 -1 -27.5t-4 -28.5l-59 -334q-4 -21 -6 -40.5t-2 -36.5q0 -68 33 -103t105 -35h62l-8 -47h-135z" />
<glyph unicode="|" horiz-adv-x="563" d="M267 -442v1863h102v-1863h-102z" />
<glyph unicode="}" horiz-adv-x="819" d="M36 -274l8 47h62q91 0 139 54.5t67 160.5l59 334q9 51 30.5 93t52.5 74.5t70 54t84 31.5v3q-69 16 -110.5 68t-41.5 131q0 13 1 25.5t3 26.5l59 330q4 22 6 41t2 36q0 69 -32.5 103.5t-105.5 34.5h-62l8 47h136q109 0 162.5 -53.5t53.5 -155.5q0 -20 -2 -40.5t-6 -43.5 l-52 -294q-6 -38 -6 -69q0 -87 47 -125.5t133 -41.5l-8 -45q-51 -2 -93.5 -16t-75 -42.5t-55 -72.5t-33.5 -107l-52 -295q-12 -68 -38 -122t-65.5 -92.5t-92 -59t-116.5 -20.5h-136z" />
<glyph unicode="~" horiz-adv-x="1108" d="M807 502q-46 0 -88 18t-81.5 44.5t-76 58t-71.5 58t-69 44.5t-68 18q-41 0 -70 -14.5t-49 -44.5t-31.5 -75.5t-17.5 -106.5h-101q6 61 19.5 122.5t42.5 111t78.5 80t128.5 30.5q48 0 91 -18t82.5 -45t76.5 -58t71.5 -58t67.5 -45t65 -18q40 0 68 16t47.5 47t31 76 t19.5 103h103q-8 -61 -22.5 -122t-44 -110.5t-78 -80.5t-124.5 -31z" />
<glyph unicode="&#xa1;" horiz-adv-x="797" d="M328 840q0 25 9.5 47t25.5 38.5t38 26t48 9.5q25 0 47.5 -9.5t38.5 -26t25.5 -38.5t9.5 -47q0 -26 -9.5 -48t-25.5 -38t-38.5 -25.5t-47.5 -9.5q-26 0 -48 9.5t-38 25.5t-25.5 38t-9.5 48zM354 -409h-218l229 952h94z" />
<glyph unicode="&#xa2;" d="M864 347q-22 -20 -54 -44t-71.5 -46.5t-86.5 -40.5t-98 -26l-33 -190h-82l32 185q-80 3 -139.5 30t-99 73t-59.5 109t-20 138q0 141 43 253.5t112.5 193t157.5 127.5t178 58l31 174h82l-30 -172q35 -2 71 -7t69 -12t61.5 -15.5t48.5 -16.5l-45 -262h-55l-16 174 q-26 26 -62.5 42.5t-85.5 19.5l-141 -802q74 6 139 33.5t123 65.5zM330 545q0 -119 43 -179t117 -73l139 791q-61 -17 -115 -62.5t-95 -115.5t-65 -161.5t-24 -199.5z" />
<glyph unicode="&#xa3;" d="M891 154l-27 -154h-838l20 117q43 34 91.5 70.5t89 79t67 94t26.5 116.5q0 36 -7 73.5t-17 78.5h-162l15 82h127q-11 42 -18 87.5t-7 95.5q0 109 31.5 195t93.5 145.5t153 90.5t211 31q79 0 149.5 -12t135.5 -31l-45 -278h-65l-7 187q-32 21 -82.5 35.5t-100.5 14.5 q-75 0 -131.5 -29t-94.5 -83t-57.5 -132t-19.5 -177q0 -17 0.5 -39.5t1.5 -43.5t1.5 -37t0.5 -20h278l-15 -82h-262q-1 -41 -3.5 -82.5t-10.5 -87.5q-9 -54 -29 -97.5t-48 -80t-62 -67.5t-73 -60h690z" />
<glyph unicode="&#xa4;" d="M132 676q0 68 21 128t59 109l-107 107l74 74l104 -109q50 38 110 60t128 22q66 0 127 -22t111 -60l108 109l72 -72l-109 -109q38 -51 60 -111t22 -126q0 -68 -22 -128t-60 -110l109 -106l-72 -72l-108 107q-50 -39 -111 -59.5t-127 -20.5q-68 0 -128 21t-110 59 l-106 -107l-72 72l107 106q-38 50 -59 110t-21 128zM228 676q0 -60 23.5 -113.5t63 -93t93 -63t113.5 -23.5q61 0 114.5 23.5t93.5 63t63.5 93t23.5 113.5q0 61 -23.5 114.5t-63.5 93.5t-93.5 63.5t-114.5 23.5q-60 0 -113.5 -23.5t-93 -63.5t-63 -93.5t-23.5 -114.5z" />
<glyph unicode="&#xa5;" d="M860 393l-15 -82h-279l-40 -231l167 -27l-9 -53h-536l9 53l177 27l40 231h-279l15 82h279l23 129l-6 35h-267l14 82h230l-153 623l-95 26l9 53h430l-9 -53l-136 -26l137 -628l361 628l-118 26l9 53h346l-9 -53l-109 -26l-375 -623h232l-14 -82h-267l-17 -29l-24 -135h279 z" />
<glyph unicode="&#xa6;" horiz-adv-x="563" d="M267 801v620h102v-620h-102zM267 -442v622h102v-622h-102z" />
<glyph unicode="&#xa7;" d="M784 69q0 -325 -412 -325q-47 0 -92 5t-85 12.5t-73 17t-56 19.5l41 230h45l19 -137q14 -14 36.5 -27t50.5 -23t60 -16t65 -6q49 0 93 10.5t76 34.5t51 62t19 93q0 56 -32.5 96.5t-81 74.5t-105 66t-105 71t-81 90.5t-32.5 124.5q0 76 28 130.5t72 90t99.5 55t111.5 27.5 q-35 19 -67 42t-56 52.5t-38.5 66t-14.5 84.5q0 81 28 138t75 93t109.5 52t130.5 16q74 0 142 -10.5t131 -24.5l-36 -209h-45l-14 108q-29 25 -74.5 40.5t-99.5 15.5q-87 0 -138 -40.5t-51 -125.5q0 -39 19 -68.5t50 -53.5t70.5 -45.5t81 -43.5t81 -47t70.5 -58t50 -75 t19 -98q0 -68 -23 -121.5t-65 -93t-101.5 -64.5t-132.5 -35q37 -23 70.5 -49.5t59.5 -59t41.5 -72.5t15.5 -90zM757 604q0 34 -12.5 61t-34.5 49t-50.5 40.5t-60.5 35.5q-63 -3 -110.5 -20t-80 -44t-49 -62.5t-16.5 -77.5q0 -64 40.5 -106.5t109.5 -75.5q53 2 101 12 t84 32.5t57.5 60.5t21.5 95z" />
<glyph unicode="&#xa8;" horiz-adv-x="682" d="M760 1231q0 -42 -28 -71.5t-70 -29.5q-21 0 -39 8t-31.5 22t-21.5 32t-8 39q0 42 29 71t71 29t70 -29t28 -71zM404 1231q0 -42 -28 -71.5t-70 -29.5q-21 0 -39 8t-32 22t-22 32t-8 39t8 39t22 31.5t32 21.5t39 8q42 0 70 -29t28 -71z" />
<glyph unicode="&#xa9;" horiz-adv-x="1556" d="M118 670q0 96 24.5 184.5t69.5 165.5t107.5 140t139.5 108t165 69.5t184 24.5t184.5 -24.5t165.5 -69.5t140 -108t108 -140t69.5 -165.5t24.5 -184.5t-24.5 -184t-69.5 -165t-108 -139.5t-140 -107.5t-165.5 -69.5t-184.5 -24.5q-144 0 -269.5 54t-219 147.5t-147.5 219 t-54 269.5zM188 670q0 -129 48.5 -242t132.5 -197.5t197 -133t242 -48.5t242.5 48.5t198 133t133.5 197.5t49 242q0 86 -22.5 165.5t-63 148.5t-97 126t-126 97.5t-149 62.5t-165.5 22q-129 0 -242 -49t-197 -133t-132.5 -197.5t-48.5 -242.5zM825 258q-99 0 -176.5 28 t-131 80.5t-81 127.5t-27.5 170q0 108 28 187.5t81 131t131 77t178 25.5q81 0 146.5 -9.5t121.5 -20.5l4 -187h-49l-19 105q-42 26 -92.5 38.5t-107.5 12.5q-66 0 -117 -17t-86.5 -58.5t-53.5 -110.5t-18 -172q0 -183 70 -266t199 -83q75 0 129.5 17.5t85.5 42.5l22 119h49 l-4 -199q-51 -16 -126.5 -27.5t-155.5 -11.5z" />
<glyph unicode="&#xaa;" horiz-adv-x="565" d="M549 836l86 -15l-9 -39h-200l12 74q-16 -17 -35.5 -32.5t-42.5 -28.5t-50.5 -20.5t-59.5 -7.5q-34 0 -63 15t-50 43t-33 68t-12 90q0 75 23 144t68 121t111 83t152 31q44 0 79 -9.5t53 -16.5l6 3q3 2 6 3.5l7 3.5q8 4 19 11h30zM508 1278q-18 11 -44 19t-54 8 q-49 0 -85 -28t-60 -73t-35.5 -101t-11.5 -111q0 -73 24 -106t66 -33q29 0 63.5 11t68.5 31z" />
<glyph unicode="&#xab;" d="M122 496l417 356h61l-320 -395l183 -383h-61l-291 356zM531 496l418 356h61l-321 -395l184 -383h-61l-292 356z" />
<glyph unicode="&#xac;" horiz-adv-x="1382" d="M1178 731v-528h-103v426h-850v102h953z" />
<glyph unicode="&#xad;" horiz-adv-x="682" d="M76 406v153h532v-153h-532z" />
<glyph unicode="&#xae;" horiz-adv-x="1556" d="M118 670q0 96 24.5 184.5t69.5 165.5t107.5 140t139.5 108t165 69.5t184 24.5t184.5 -24.5t165.5 -69.5t140 -108t108 -140t69.5 -165.5t24.5 -184.5t-24.5 -184t-69.5 -165t-108 -139.5t-140 -107.5t-165.5 -69.5t-184.5 -24.5q-144 0 -269.5 54t-219 147.5t-147.5 219 t-54 269.5zM188 670q0 -129 48.5 -242t132.5 -197.5t197 -133t242 -48.5t242.5 48.5t198 133t133.5 197.5t49 242q0 86 -22.5 165.5t-63 148.5t-97 126t-126 97.5t-149 62.5t-165.5 22q-129 0 -242 -49t-197 -133t-132.5 -197.5t-48.5 -242.5zM698 625v-289l114 -17v-43 h-346v43l96 17v688l-104 16v41h330q84 0 143.5 -16t97.5 -45.5t56 -70t18 -89.5q0 -77 -45 -133t-133 -84l213 -307l84 -17v-43h-205l-229 349h-90zM962 858q0 48 -11.5 79t-35.5 49.5t-62 26t-92 7.5h-63v-332h67q55 0 93 9.5t61 29.5t33 52.5t10 78.5z" />
<glyph unicode="&#xaf;" d="M1205 1452h-1059v94h1059v-94z" />
<glyph unicode="&#xb0;" horiz-adv-x="819" d="M164 1051q0 64 24 121t66 99t98.5 66.5t121.5 24.5q64 0 121 -24.5t99 -66.5t66.5 -99t24.5 -121q0 -65 -24.5 -121.5t-66.5 -98.5t-99 -66t-121 -24q-65 0 -121.5 24t-98.5 66t-66 98.5t-24 121.5zM266 1051q0 -44 16 -82t44.5 -66.5t66 -45t81.5 -16.5t82.5 16.5 t66.5 45t44 66.5t16 82t-16 82.5t-44 67t-66.5 45t-82.5 16.5t-81.5 -16.5t-66 -45t-44.5 -67t-16 -82.5z" />
<glyph unicode="&#xb1;" horiz-adv-x="1124" d="M622 629v-426h-103v426h-424v102h424v426h103v-426h426v-102h-426zM1048 102v-102h-953v102h953z" />
<glyph unicode="&#xb2;" horiz-adv-x="614" d="M547 535h-498l15 96q99 72 179 134.5t136.5 124.5t87.5 127.5t31 143.5q0 52 -28 86.5t-83 34.5q-35 0 -66 -10t-54 -23l-38 -98h-55l31 172q46 11 94.5 19t99.5 8q116 0 179 -51t63 -138q0 -78 -38.5 -144t-103 -126.5t-148 -120.5t-172.5 -127h387z" />
<glyph unicode="&#xb3;" horiz-adv-x="614" d="M259 522q-59 0 -117 8t-101 19l26 186h55l7 -112q20 -13 56.5 -23t73.5 -10q57 0 96 13.5t63.5 38.5t35.5 61t11 81q0 66 -39 97.5t-100 36.5l-85 6l12 65l87 4q72 3 115.5 46t43.5 135q0 52 -28.5 80t-93.5 28q-32 0 -63.5 -8t-55.5 -21l-38 -102h-55l31 172 q43 11 87.5 19t104.5 8q57 0 103.5 -12t79.5 -34.5t51 -55t18 -72.5q0 -48 -16 -85.5t-45.5 -65t-71.5 -44.5t-94 -25q95 -11 144 -54.5t49 -113.5q0 -54 -21.5 -102.5t-64.5 -85t-108.5 -57.5t-152.5 -21z" />
<glyph unicode="&#xb4;" horiz-adv-x="682" d="M248 1118l5 33l244 272h213l-6 -37l-401 -268h-55z" />
<glyph unicode="&#xb5;" horiz-adv-x="1180" d="M719 124q-21 -21 -49.5 -46t-62.5 -47t-71 -36.5t-75 -14.5q-52 0 -86 18t-50 60q-23 -133 -54.5 -262t-66.5 -232h-177l8 45q9 19 25.5 62t35 103.5t37.5 135.5t34 159l141 801l-135 25l8 45h306l-115 -652q-2 -12 -3 -23.5t-1 -22.5q0 -69 38 -107.5t102 -38.5 q28 0 59 10.5t61.5 27t57 37.5t45.5 42l131 727h163l-154 -870l133 -25l-8 -45h-278z" />
<glyph unicode="&#xb6;" horiz-adv-x="1071" d="M924 1266v-1524h-94v1524h-170v-1524h-94l2 823q-92 0 -173 23t-142 72t-96.5 124t-35.5 179q0 90 27.5 160t82 118.5t136 74t188.5 25.5h463v-53z" />
<glyph unicode="&#xb7;" horiz-adv-x="683" d="M484 678q0 -26 -9.5 -48t-25.5 -38t-38.5 -25.5t-47.5 -9.5q-26 0 -48 9.5t-38 25.5t-25.5 38t-9.5 48q0 25 9.5 47t25.5 38.5t38 26t48 9.5q25 0 47.5 -9.5t38.5 -26t25.5 -38.5t9.5 -47z" />
<glyph unicode="&#xb8;" horiz-adv-x="682" d="M526 -212q0 -98 -71.5 -156.5t-207.5 -58.5q-35 0 -71 6t-62 15l23 75q9 -3 21 -6t25.5 -5t27 -3.5t23.5 -1.5q61 0 99 27.5t38 84.5q0 28 -12.5 48t-31.5 33t-43 19.5t-46 8.5l68 153h86l-33 -82q80 -8 123.5 -49t43.5 -108z" />
<glyph unicode="&#xb9;" horiz-adv-x="614" d="M388 598l164 -14l-9 -49h-474l8 49l167 14l110 625l-171 -58l8 47l257 134h72z" />
<glyph unicode="&#xba;" horiz-adv-x="635" d="M430 1305q-39 0 -73 -23t-60 -64t-41 -97t-15 -123q0 -81 29.5 -125t82.5 -44q39 0 73.5 23t60.5 63.5t41.5 96.5t15.5 121q0 85 -29.5 128.5t-84.5 43.5zM340 770q-50 0 -91.5 16.5t-71.5 47t-46.5 74.5t-16.5 99q0 70 23 134.5t66 113.5t104.5 78t138.5 29 q50 0 91.5 -16.5t71.5 -47t46.5 -74.5t16.5 -99q0 -71 -23 -135t-66 -113t-104.5 -78t-138.5 -29z" />
<glyph unicode="&#xbb;" d="M901 430l-417 -356h-61l321 396l-184 382h61l291 -356zM492 430l-418 -356h-61l322 396l-185 382h61l292 -356z" />
<glyph unicode="&#xbc;" horiz-adv-x="1536" d="M1326 160l-28 -159h-142l28 159h-365l18 97l497 550h107l-96 -544h121l-19 -103h-121zM1270 642h-2l-344 -379h279zM413 0h-102l964 1341h100zM391 598l164 -14l-9 -49h-474l8 49l167 14l110 625l-171 -58l8 47l257 134h72z" />
<glyph unicode="&#xbd;" horiz-adv-x="1536" d="M72 0zM358 0h-102l964 1341h100zM391 598l164 -14l-9 -49h-474l8 49l167 14l110 625l-171 -58l8 47l257 134h72zM1386 1h-498l15 96q99 72 179 134.5t136.5 124.5t87.5 127.5t31 143.5q0 52 -28 86.5t-83 34.5q-35 0 -66 -10t-54 -23l-38 -98h-55l31 172q46 11 94.5 19 t99.5 8q116 0 179 -51t63 -138q0 -78 -38.5 -144t-103 -126.5t-148 -120.5t-172.5 -127h387z" />
<glyph unicode="&#xbe;" horiz-adv-x="1536" d="M1327 160l-28 -159h-142l28 159h-365l18 97l497 550h107l-96 -544h121l-19 -103h-121zM1271 642h-2l-344 -379h279zM413 0h-102l964 1341h100zM337 522q-59 0 -117 8t-101 19l26 186h55l7 -112q20 -13 56.5 -23t73.5 -10q57 0 96 13.5t63.5 38.5t35.5 61t11 81 q0 66 -39 97.5t-100 36.5l-85 6l12 65l87 4q72 3 115.5 46t43.5 135q0 52 -28.5 80t-93.5 28q-32 0 -63.5 -8t-55.5 -21l-38 -102h-55l31 172q43 11 87.5 19t104.5 8q57 0 103.5 -12t79.5 -34.5t51 -55t18 -72.5q0 -48 -16 -85.5t-45.5 -65t-71.5 -44.5t-94 -25 q95 -11 144 -54.5t49 -113.5q0 -54 -21.5 -102.5t-64.5 -85t-108.5 -57.5t-152.5 -21z" />
<glyph unicode="&#xbf;" d="M593 582h80l-33 -334l-148 -29q-116 -23 -171 -103.5t-55 -234.5q0 -104 46 -162.5t153 -58.5q28 0 59.5 5.5t61 15.5t56 23t46.5 28l50 164h66l-31 -254q-70 -29 -152 -47.5t-167 -18.5q-186 0 -276 74t-90 219q0 84 21.5 155t68.5 127t120 96t177 62l59 13zM550 840 q0 25 9.5 47t25.5 38.5t38 26t47 9.5t47.5 -9.5t38.5 -26t25.5 -38.5t9.5 -47q0 -26 -9.5 -48t-25.5 -38t-38.5 -25.5t-47.5 -9.5t-47 9.5t-38 25.5t-25.5 38t-9.5 48z" />
<glyph unicode="&#xc0;" horiz-adv-x="1251" d="M0 0zM264 53l-10 -53h-366l10 53l112 27l682 1272h191l250 -1272l125 -27l-11 -53h-475l11 53l143 27l-64 387h-528l-205 -387zM723 1208l-344 -651h467zM871 1452l-307 268l6 37h203l158 -272l-5 -33h-55z" />
<glyph unicode="&#xc1;" horiz-adv-x="1251" d="M0 0zM264 53l-10 -53h-366l10 53l112 27l682 1272h191l250 -1272l125 -27l-11 -53h-475l11 53l143 27l-64 387h-528l-205 -387zM723 1208l-344 -651h467zM691 1452l5 33l244 272h213l-6 -37l-401 -268h-55z" />
<glyph unicode="&#xc2;" horiz-adv-x="1251" d="M0 0zM264 53l-10 -53h-366l10 53l112 27l682 1272h191l250 -1272l125 -27l-11 -53h-475l11 53l143 27l-64 387h-528l-205 -387zM723 1208l-344 -651h467zM486 1452l5 33l235 273h213l139 -273l-5 -33h-47l-206 183l-270 -183h-64z" />
<glyph unicode="&#xc3;" horiz-adv-x="1251" d="M0 0zM264 53l-10 -53h-366l10 53l112 27l682 1272h191l250 -1272l125 -27l-11 -53h-475l11 53l143 27l-64 387h-528l-205 -387zM723 1208l-344 -651h467zM922 1479q-48 0 -84.5 21.5t-68 48t-61 48t-62.5 21.5q-31 0 -51 -10.5t-33.5 -28t-21.5 -38.5t-15 -42h-52 q12 47 30 90.5t46 77.5t68 54t94 20q48 0 85 -21.5t68.5 -48t61 -48t61.5 -21.5q30 0 50 10.5t33.5 27.5t22 38t15.5 42h52q-12 -47 -30 -90t-46 -77t-68 -54t-94 -20z" />
<glyph unicode="&#xc4;" horiz-adv-x="1251" d="M0 0zM264 53l-10 -53h-366l10 53l112 27l682 1272h191l250 -1272l125 -27l-11 -53h-475l11 53l143 27l-64 387h-528l-205 -387zM723 1208l-344 -651h467zM1096 1565q0 -42 -28 -71.5t-70 -29.5q-21 0 -39 8t-31.5 22t-21.5 32t-8 39q0 42 29 71t71 29t70 -29t28 -71z M740 1565q0 -42 -28 -71.5t-70 -29.5q-21 0 -39 8t-32 22t-22 32t-8 39t8 39t22 31.5t32 21.5t39 8q42 0 70 -29t28 -71z" />
<glyph unicode="&#xc5;" horiz-adv-x="1251" d="M993 1475q0 -57 -27.5 -103t-72.5 -72l240 -1220l125 -27l-11 -53h-475l11 53l143 27l-64 387h-528l-205 -387l135 -27l-10 -53h-366l10 53l112 27l660 1230q-38 28 -60.5 71t-22.5 94q0 42 16 79t43.5 64.5t64.5 43.5t79 16t79 -16t64.5 -43.5t43.5 -64.5t16 -79z M723 1208l-344 -651h467zM913 1475q0 25 -9.5 47.5t-26.5 39.5t-39.5 26.5t-47.5 9.5q-26 0 -48 -9.5t-39 -26.5t-26.5 -39.5t-9.5 -47.5t9 -47t25 -39t37.5 -27t46.5 -10h5q25 0 47.5 10t39.5 26.5t26.5 39t9.5 47.5z" />
<glyph unicode="&#xc6;" horiz-adv-x="1821" d="M731 80l68 387h-412l-275 -387l153 -27l-9 -53h-402l9 53l131 27l856 1190l-160 18l9 53h1089l-57 -321h-66l6 217q-31 4 -76 7t-92 4.5t-88.5 2t-64.5 0.5h-219l-93 -524h362l60 160h64l-73 -412h-64l-2 162h-362l-97 -547h264q62 0 117 1.5t99.5 3.5t76.5 5t48 6 l101 248h66l-82 -354h-1070l10 53zM452 557h363l119 674z" />
<glyph unicode="&#xc7;" horiz-adv-x="1366" d="M114 0zM699 -19q-143 0 -252 39t-183 110t-112 171t-38 222q0 195 62 350t172.5 262t263.5 164t335 57q137 0 243 -15.5t195 -35.5l-45 -293h-65v174q-62 43 -150 66.5t-184 23.5q-136 0 -251 -54.5t-198.5 -155.5t-130.5 -244t-47 -319q0 -95 22.5 -176t71.5 -139.5 t125 -91.5t183 -33q62 0 121 10t110.5 27t94.5 38.5t74 45.5l72 201h65l-61 -315q-47 -17 -104.5 -33t-121.5 -28.5t-132 -20t-135 -7.5zM875 -212q0 -98 -71.5 -156.5t-207.5 -58.5q-35 0 -71 6t-62 15l23 75q9 -3 21 -6t25.5 -5t27 -3.5t23.5 -1.5q61 0 99 27.5t38 84.5 q0 28 -12.5 48t-31.5 33t-43 19.5t-46 8.5l68 153h86l-33 -82q80 -8 123.5 -49t43.5 -108z" />
<glyph unicode="&#xc8;" horiz-adv-x="1251" d="M0 0zM-14 53l175 27l209 1182l-168 26l10 53h1006l-57 -321h-66l6 217q-31 4 -76 7t-92 4.5t-88.5 2t-64.5 0.5h-219l-93 -524h362l60 160h64l-73 -412h-64l-2 162h-362l-97 -547h264q62 0 117 1.5t99.5 3.5t76.5 5t48 6l101 248h66l-82 -354h-1070zM863 1452l-307 268 l6 37h203l158 -272l-5 -33h-55z" />
<glyph unicode="&#xc9;" horiz-adv-x="1251" d="M0 0zM-14 53l175 27l209 1182l-168 26l10 53h1006l-57 -321h-66l6 217q-31 4 -76 7t-92 4.5t-88.5 2t-64.5 0.5h-219l-93 -524h362l60 160h64l-73 -412h-64l-2 162h-362l-97 -547h264q62 0 117 1.5t99.5 3.5t76.5 5t48 6l101 248h66l-82 -354h-1070zM656 1452l5 33 l244 272h213l-6 -37l-401 -268h-55z" />
<glyph unicode="&#xca;" horiz-adv-x="1251" d="M0 0zM-14 53l175 27l209 1182l-168 26l10 53h1006l-57 -321h-66l6 217q-31 4 -76 7t-92 4.5t-88.5 2t-64.5 0.5h-219l-93 -524h362l60 160h64l-73 -412h-64l-2 162h-362l-97 -547h264q62 0 117 1.5t99.5 3.5t76.5 5t48 6l101 248h66l-82 -354h-1070zM517 1452l5 33 l235 273h213l139 -273l-5 -33h-47l-206 183l-270 -183h-64z" />
<glyph unicode="&#xcb;" horiz-adv-x="1251" d="M0 0zM-14 53l175 27l209 1182l-168 26l10 53h1006l-57 -321h-66l6 217q-31 4 -76 7t-92 4.5t-88.5 2t-64.5 0.5h-219l-93 -524h362l60 160h64l-73 -412h-64l-2 162h-362l-97 -547h264q62 0 117 1.5t99.5 3.5t76.5 5t48 6l101 248h66l-82 -354h-1070zM1072 1596 q0 -42 -28 -71.5t-70 -29.5q-21 0 -39 8t-31.5 22t-21.5 32t-8 39q0 42 29 71t71 29t70 -29t28 -71zM716 1596q0 -42 -28 -71.5t-70 -29.5q-21 0 -39 8t-32 22t-22 32t-8 39t8 39t22 31.5t32 21.5t39 8q42 0 70 -29t28 -71z" />
<glyph unicode="&#xcc;" horiz-adv-x="682" d="M0 0zM369 80l166 -27l-8 -53h-535l8 53l176 27l207 1182l-166 26l8 53h537l-8 -53l-178 -26zM598 1452l-307 268l6 37h203l158 -272l-5 -33h-55z" />
<glyph unicode="&#xcd;" horiz-adv-x="682" d="M0 0zM369 80l166 -27l-8 -53h-535l8 53l176 27l207 1182l-166 26l8 53h537l-8 -53l-178 -26zM402 1452l5 33l244 272h213l-6 -37l-401 -268h-55z" />
<glyph unicode="&#xce;" horiz-adv-x="682" d="M0 0zM369 80l166 -27l-8 -53h-535l8 53l176 27l207 1182l-166 26l8 53h537l-8 -53l-178 -26zM219 1452l5 33l235 273h213l139 -273l-5 -33h-47l-206 183l-270 -183h-64z" />
<glyph unicode="&#xcf;" horiz-adv-x="682" d="M0 0zM369 80l166 -27l-8 -53h-535l8 53l176 27l207 1182l-166 26l8 53h537l-8 -53l-178 -26zM806 1596q0 -42 -28 -71.5t-70 -29.5q-21 0 -39 8t-31.5 22t-21.5 32t-8 39q0 42 29 71t71 29t70 -29t28 -71zM450 1596q0 -42 -28 -71.5t-70 -29.5q-21 0 -39 8t-32 22t-22 32 t-8 39t8 39t22 31.5t32 21.5t39 8q42 0 70 -29t28 -71z" />
<glyph unicode="&#xd0;" horiz-adv-x="1479" d="M784 1341q162 0 286 -36t208 -106t127 -172t43 -235q0 -180 -56.5 -326.5t-162 -251t-257.5 -161.5t-343 -57q-57 0 -125 0.5t-134 1.5t-124.5 1.5t-97.5 0.5h-171l9 53l176 27l96 549h-180l15 82h180l97 551l-167 26l9 53h572zM1238 785q0 125 -36 213.5t-103 144.5 t-162.5 82t-213.5 26h-162l-95 -540h375l-15 -82h-375l-94 -535q60 -3 126 -5.5t138 -2.5q153 0 268.5 49t193 139.5t116.5 220t39 290.5z" />
<glyph unicode="&#xd1;" horiz-adv-x="1366" d="M0 0zM1170 1262l-176 26l10 53h457l-10 -53l-176 -26l-223 -1262h-97l-481 1206l-199 -1126l176 -27l-10 -53h-456l10 53l175 27l209 1182l-168 26l10 53h388l399 -1005zM1012 1479q-48 0 -84.5 21.5t-68 48t-61 48t-62.5 21.5q-31 0 -51 -10.5t-33.5 -28t-21.5 -38.5 t-15 -42h-52q12 47 30 90.5t46 77.5t68 54t94 20q48 0 85 -21.5t68.5 -48t61 -48t61.5 -21.5q30 0 50 10.5t33.5 27.5t22 38t15.5 42h52q-12 -47 -30 -90t-46 -77t-68 -54t-94 -20z" />
<glyph unicode="&#xd2;" horiz-adv-x="1479" d="M103 0zM1231 832q0 101 -27 183t-76 140t-117.5 89.5t-152.5 31.5q-92 0 -169 -36t-138.5 -96t-108 -138.5t-77.5 -164.5t-46.5 -173.5t-15.5 -164.5q0 -100 26.5 -181t74.5 -138t115.5 -88t150.5 -31q92 0 169.5 35.5t140 94.5t109.5 137t78.5 163.5t47.5 172t16 164.5z M663 -20q-123 0 -226 39t-177 109.5t-115.5 168.5t-41.5 217q0 113 23 219t68 199.5t110.5 171.5t151 134t189.5 87t226 31q123 0 226 -39t177 -109.5t115.5 -169t41.5 -216.5q0 -97 -19.5 -197.5t-60 -194t-102.5 -175.5t-147.5 -143t-194.5 -96.5t-244 -35.5zM1040 1452 l-307 268l6 37h203l158 -272l-5 -33h-55z" />
<glyph unicode="&#xd3;" horiz-adv-x="1479" d="M103 0zM1231 832q0 101 -27 183t-76 140t-117.5 89.5t-152.5 31.5q-92 0 -169 -36t-138.5 -96t-108 -138.5t-77.5 -164.5t-46.5 -173.5t-15.5 -164.5q0 -100 26.5 -181t74.5 -138t115.5 -88t150.5 -31q92 0 169.5 35.5t140 94.5t109.5 137t78.5 163.5t47.5 172t16 164.5z M663 -20q-123 0 -226 39t-177 109.5t-115.5 168.5t-41.5 217q0 113 23 219t68 199.5t110.5 171.5t151 134t189.5 87t226 31q123 0 226 -39t177 -109.5t115.5 -169t41.5 -216.5q0 -97 -19.5 -197.5t-60 -194t-102.5 -175.5t-147.5 -143t-194.5 -96.5t-244 -35.5zM836 1452 l5 33l244 272h213l-6 -37l-401 -268h-55z" />
<glyph unicode="&#xd4;" horiz-adv-x="1479" d="M103 0zM1231 832q0 101 -27 183t-76 140t-117.5 89.5t-152.5 31.5q-92 0 -169 -36t-138.5 -96t-108 -138.5t-77.5 -164.5t-46.5 -173.5t-15.5 -164.5q0 -100 26.5 -181t74.5 -138t115.5 -88t150.5 -31q92 0 169.5 35.5t140 94.5t109.5 137t78.5 163.5t47.5 172t16 164.5z M663 -20q-123 0 -226 39t-177 109.5t-115.5 168.5t-41.5 217q0 113 23 219t68 199.5t110.5 171.5t151 134t189.5 87t226 31q123 0 226 -39t177 -109.5t115.5 -169t41.5 -216.5q0 -97 -19.5 -197.5t-60 -194t-102.5 -175.5t-147.5 -143t-194.5 -96.5t-244 -35.5zM626 1452 l5 33l235 273h213l139 -273l-5 -33h-47l-206 183l-270 -183h-64z" />
<glyph unicode="&#xd5;" horiz-adv-x="1479" d="M103 0zM1231 832q0 101 -27 183t-76 140t-117.5 89.5t-152.5 31.5q-92 0 -169 -36t-138.5 -96t-108 -138.5t-77.5 -164.5t-46.5 -173.5t-15.5 -164.5q0 -100 26.5 -181t74.5 -138t115.5 -88t150.5 -31q92 0 169.5 35.5t140 94.5t109.5 137t78.5 163.5t47.5 172t16 164.5z M663 -20q-123 0 -226 39t-177 109.5t-115.5 168.5t-41.5 217q0 113 23 219t68 199.5t110.5 171.5t151 134t189.5 87t226 31q123 0 226 -39t177 -109.5t115.5 -169t41.5 -216.5q0 -97 -19.5 -197.5t-60 -194t-102.5 -175.5t-147.5 -143t-194.5 -96.5t-244 -35.5zM1043 1479 q-48 0 -84.5 21.5t-68 48t-61 48t-62.5 21.5q-31 0 -51 -10.5t-33.5 -28t-21.5 -38.5t-15 -42h-52q12 47 30 90.5t46 77.5t68 54t94 20q48 0 85 -21.5t68.5 -48t61 -48t61.5 -21.5q30 0 50 10.5t33.5 27.5t22 38t15.5 42h52q-12 -47 -30 -90t-46 -77t-68 -54t-94 -20z" />
<glyph unicode="&#xd6;" horiz-adv-x="1479" d="M103 0zM1231 832q0 101 -27 183t-76 140t-117.5 89.5t-152.5 31.5q-92 0 -169 -36t-138.5 -96t-108 -138.5t-77.5 -164.5t-46.5 -173.5t-15.5 -164.5q0 -100 26.5 -181t74.5 -138t115.5 -88t150.5 -31q92 0 169.5 35.5t140 94.5t109.5 137t78.5 163.5t47.5 172t16 164.5z M663 -20q-123 0 -226 39t-177 109.5t-115.5 168.5t-41.5 217q0 113 23 219t68 199.5t110.5 171.5t151 134t189.5 87t226 31q123 0 226 -39t177 -109.5t115.5 -169t41.5 -216.5q0 -97 -19.5 -197.5t-60 -194t-102.5 -175.5t-147.5 -143t-194.5 -96.5t-244 -35.5zM1194 1596 q0 -42 -28 -71.5t-70 -29.5q-21 0 -39 8t-31.5 22t-21.5 32t-8 39q0 42 29 71t71 29t70 -29t28 -71zM838 1596q0 -42 -28 -71.5t-70 -29.5q-21 0 -39 8t-32 22t-22 32t-8 39t8 39t22 31.5t32 21.5t39 8q42 0 70 -29t28 -71z" />
<glyph unicode="&#xd7;" horiz-adv-x="1382" d="M708 608l-345 -344l-71 72l344 346l-344 342l74 74l342 -344l346 344l71 -72l-344 -344l344 -346l-71 -72z" />
<glyph unicode="&#xd8;" horiz-adv-x="1479" d="M663 -20q-119 0 -218.5 36t-174.5 102l-173 -173h-119l235 235q-53 67 -81.5 151t-28.5 183q0 113 23 219t68 199.5t110.5 171.5t151 134t189.5 87t226 31q117 0 215 -35t172 -99l169 169h115l-228 -228q56 -68 86.5 -153.5t30.5 -187.5q0 -97 -19.5 -197.5t-60 -194 t-102.5 -175.5t-147.5 -143t-194.5 -96.5t-244 -35.5zM1231 832q0 117 -37 211l-819 -820q48 -75 123 -116.5t172 -41.5q92 0 169.5 35.5t140 94.5t109.5 137t78.5 163.5t47.5 172t16 164.5zM303 503q0 -114 33 -201l818 817q-49 75 -124.5 116t-171.5 41q-92 0 -169 -36 t-138.5 -96t-108 -138.5t-77.5 -164.5t-46.5 -173.5t-15.5 -164.5z" />
<glyph unicode="&#xd9;" horiz-adv-x="1479" d="M188 0zM1299 1262l-175 26l9 53h457l-9 -53l-177 -26l-141 -801q-16 -92 -56.5 -178.5t-111 -153.5t-173 -108t-243.5 -41q-233 0 -355 94.5t-122 273.5q0 26 3 55.5t7 49.5l143 809l-167 26l9 53h536l-9 -53l-177 -26l-141 -805q-5 -27 -7.5 -52.5t-2.5 -49.5 q0 -60 17 -109t53 -83t93 -52.5t137 -18.5q112 0 193 30t136.5 80t87.5 115t44 136zM971 1452l-307 268l6 37h203l158 -272l-5 -33h-55z" />
<glyph unicode="&#xda;" horiz-adv-x="1479" d="M188 0zM1299 1262l-175 26l9 53h457l-9 -53l-177 -26l-141 -801q-16 -92 -56.5 -178.5t-111 -153.5t-173 -108t-243.5 -41q-233 0 -355 94.5t-122 273.5q0 26 3 55.5t7 49.5l143 809l-167 26l9 53h536l-9 -53l-177 -26l-141 -805q-5 -27 -7.5 -52.5t-2.5 -49.5 q0 -60 17 -109t53 -83t93 -52.5t137 -18.5q112 0 193 30t136.5 80t87.5 115t44 136zM821 1452l5 33l244 272h213l-6 -37l-401 -268h-55z" />
<glyph unicode="&#xdb;" horiz-adv-x="1479" d="M188 0zM1299 1262l-175 26l9 53h457l-9 -53l-177 -26l-141 -801q-16 -92 -56.5 -178.5t-111 -153.5t-173 -108t-243.5 -41q-233 0 -355 94.5t-122 273.5q0 26 3 55.5t7 49.5l143 809l-167 26l9 53h536l-9 -53l-177 -26l-141 -805q-5 -27 -7.5 -52.5t-2.5 -49.5 q0 -60 17 -109t53 -83t93 -52.5t137 -18.5q112 0 193 30t136.5 80t87.5 115t44 136zM662 1452l5 33l235 273h213l139 -273l-5 -33h-47l-206 183l-270 -183h-64z" />
<glyph unicode="&#xdc;" horiz-adv-x="1479" d="M188 0zM1299 1262l-175 26l9 53h457l-9 -53l-177 -26l-141 -801q-16 -92 -56.5 -178.5t-111 -153.5t-173 -108t-243.5 -41q-233 0 -355 94.5t-122 273.5q0 26 3 55.5t7 49.5l143 809l-167 26l9 53h536l-9 -53l-177 -26l-141 -805q-5 -27 -7.5 -52.5t-2.5 -49.5 q0 -60 17 -109t53 -83t93 -52.5t137 -18.5q112 0 193 30t136.5 80t87.5 115t44 136zM1260 1596q0 -42 -28 -71.5t-70 -29.5q-21 0 -39 8t-31.5 22t-21.5 32t-8 39q0 42 29 71t71 29t70 -29t28 -71zM904 1596q0 -42 -28 -71.5t-70 -29.5q-21 0 -39 8t-32 22t-22 32t-8 39 t8 39t22 31.5t32 21.5t39 8q42 0 70 -29t28 -71z" />
<glyph unicode="&#xdd;" horiz-adv-x="1139" d="M117 0zM688 528l-79 -448l209 -27l-10 -53h-619l10 53l217 27l78 442l-230 740l-147 26l10 53h547l-10 -53l-194 -26l188 -627l393 627l-176 26l10 53h436l-10 -53l-151 -26zM638 1452l5 33l244 272h213l-6 -37l-401 -268h-55z" />
<glyph unicode="&#xde;" horiz-adv-x="1251" d="M566 358q195 0 291.5 89.5t96.5 267.5q0 143 -72.5 210.5t-218.5 67.5h-148l-112 -635h163zM703 1083q119 0 204 -26t140 -72.5t80.5 -112t25.5 -144.5q0 -100 -32 -184.5t-100.5 -145.5t-175.5 -95.5t-257 -34.5h-201l-33 -188l219 -27l-10 -53h-574l10 53l162 27 l209 1182l-155 26l10 53h524l-10 -53l-176 -26l-32 -179h172z" />
<glyph unicode="&#xdf;" d="M975 997q-49 -5 -102 -13t-97 -30t-72.5 -64t-28.5 -115q0 -48 18.5 -82t46.5 -62.5t61 -55.5t61 -60t46.5 -76.5t18.5 -105.5q0 -79 -22.5 -144t-67 -111.5t-111.5 -72t-156 -25.5q-32 0 -65 3.5t-63.5 9.5t-55.5 14.5t-41 19.5l34 192h45l10 -94q18 -28 57.5 -47 t90.5 -19q39 0 72.5 13.5t58 40.5t39 68t14.5 96q0 51 -18.5 86.5t-46 64.5t-60 55t-60 57.5t-46 72t-18.5 99.5q0 81 24.5 140t66.5 98.5t97 62.5t115 34q15 85 15 145q0 94 -38 132t-114 38q-43 0 -81 -13t-69 -43t-54 -78t-35 -118l-195 -1110h-306l7 45l145 25l175 991 q19 106 59 178.5t96 117.5t125 65t147 20q71 0 126 -15.5t92.5 -49t56.5 -88t19 -132.5q0 -35 -4 -75t-12 -85z" />
<glyph unicode="&#xe0;" d="M61 0zM789 70l113 -25l-8 -45h-285l29 156q-84 -88 -161 -132.5t-148 -44.5q-57 0 -106 21.5t-85 63.5t-56.5 104.5t-20.5 144.5q0 86 19 167.5t54.5 154t85.5 133t112 104t135 68t153 24.5q66 0 121.5 -11t106.5 -31q3 2 7 5q3 2 7 5t9 7q10 7 22 17h54zM760 837 q-19 13 -36 22t-35.5 15t-39 8.5t-46.5 2.5q-84 0 -151.5 -49.5t-114.5 -128t-72 -175.5t-25 -193q0 -63 14 -107.5t36.5 -73t52 -41.5t61.5 -13q33 0 66 11.5t64.5 31t61 44.5t55.5 52zM720 1118l-307 268l6 37h203l158 -272l-5 -33h-55z" />
<glyph unicode="&#xe1;" d="M61 0zM789 70l113 -25l-8 -45h-285l29 156q-84 -88 -161 -132.5t-148 -44.5q-57 0 -106 21.5t-85 63.5t-56.5 104.5t-20.5 144.5q0 86 19 167.5t54.5 154t85.5 133t112 104t135 68t153 24.5q66 0 121.5 -11t106.5 -31q3 2 7 5q3 2 7 5t9 7q10 7 22 17h54zM760 837 q-19 13 -36 22t-35.5 15t-39 8.5t-46.5 2.5q-84 0 -151.5 -49.5t-114.5 -128t-72 -175.5t-25 -193q0 -63 14 -107.5t36.5 -73t52 -41.5t61.5 -13q33 0 66 11.5t64.5 31t61 44.5t55.5 52zM516 1118l5 33l244 272h213l-6 -37l-401 -268h-55z" />
<glyph unicode="&#xe2;" d="M61 0zM789 70l113 -25l-8 -45h-285l29 156q-84 -88 -161 -132.5t-148 -44.5q-57 0 -106 21.5t-85 63.5t-56.5 104.5t-20.5 144.5q0 86 19 167.5t54.5 154t85.5 133t112 104t135 68t153 24.5q66 0 121.5 -11t106.5 -31q3 2 7 5q3 2 7 5t9 7q10 7 22 17h54zM760 837 q-19 13 -36 22t-35.5 15t-39 8.5t-46.5 2.5q-84 0 -151.5 -49.5t-114.5 -128t-72 -175.5t-25 -193q0 -63 14 -107.5t36.5 -73t52 -41.5t61.5 -13q33 0 66 11.5t64.5 31t61 44.5t55.5 52zM345 1118l5 33l235 273h213l139 -273l-5 -33h-47l-206 183l-270 -183h-64z" />
<glyph unicode="&#xe3;" d="M61 0zM789 70l113 -25l-8 -45h-285l29 156q-84 -88 -161 -132.5t-148 -44.5q-57 0 -106 21.5t-85 63.5t-56.5 104.5t-20.5 144.5q0 86 19 167.5t54.5 154t85.5 133t112 104t135 68t153 24.5q66 0 121.5 -11t106.5 -31q3 2 7 5q3 2 7 5t9 7q10 7 22 17h54zM760 837 q-19 13 -36 22t-35.5 15t-39 8.5t-46.5 2.5q-84 0 -151.5 -49.5t-114.5 -128t-72 -175.5t-25 -193q0 -63 14 -107.5t36.5 -73t52 -41.5t61.5 -13q33 0 66 11.5t64.5 31t61 44.5t55.5 52zM780 1119q-48 0 -84.5 21.5t-68 48t-61 48t-62.5 21.5q-31 0 -51 -10.5t-33.5 -28 t-21.5 -38.5t-15 -42h-52q12 47 30 90.5t46 77.5t68 54t94 20q48 0 85 -21.5t68.5 -48t61 -48t61.5 -21.5q30 0 50 10.5t33.5 27.5t22 38t15.5 42h52q-12 -47 -30 -90t-46 -77t-68 -54t-94 -20z" />
<glyph unicode="&#xe4;" d="M61 0zM789 70l113 -25l-8 -45h-285l29 156q-84 -88 -161 -132.5t-148 -44.5q-57 0 -106 21.5t-85 63.5t-56.5 104.5t-20.5 144.5q0 86 19 167.5t54.5 154t85.5 133t112 104t135 68t153 24.5q66 0 121.5 -11t106.5 -31q3 2 7 5q3 2 7 5t9 7q10 7 22 17h54zM760 837 q-19 13 -36 22t-35.5 15t-39 8.5t-46.5 2.5q-84 0 -151.5 -49.5t-114.5 -128t-72 -175.5t-25 -193q0 -63 14 -107.5t36.5 -73t52 -41.5t61.5 -13q33 0 66 11.5t64.5 31t61 44.5t55.5 52zM937 1231q0 -42 -28 -71.5t-70 -29.5q-21 0 -39 8t-31.5 22t-21.5 32t-8 39 q0 42 29 71t71 29t70 -29t28 -71zM581 1231q0 -42 -28 -71.5t-70 -29.5q-21 0 -39 8t-32 22t-22 32t-8 39t8 39t22 31.5t32 21.5t39 8q42 0 70 -29t28 -71z" />
<glyph unicode="&#xe5;" d="M61 0zM789 70l113 -25l-8 -45h-285l29 156q-84 -88 -161 -132.5t-148 -44.5q-57 0 -106 21.5t-85 63.5t-56.5 104.5t-20.5 144.5q0 86 19 167.5t54.5 154t85.5 133t112 104t135 68t153 24.5q66 0 121.5 -11t106.5 -31q3 2 7 5q3 2 7 5t9 7q10 7 22 17h54zM760 837 q-19 13 -36 22t-35.5 15t-39 8.5t-46.5 2.5q-84 0 -151.5 -49.5t-114.5 -128t-72 -175.5t-25 -193q0 -63 14 -107.5t36.5 -73t52 -41.5t61.5 -13q33 0 66 11.5t64.5 31t61 44.5t55.5 52zM871 1277q0 -42 -16 -79t-43.5 -64.5t-64.5 -43.5t-79 -16t-79 16t-64.5 43.5 t-43.5 64.5t-16 79t16 79t43.5 64.5t64.5 43.5t79 16t79 -16t64.5 -43.5t43.5 -64.5t16 -79zM791 1277q0 25 -9.5 47.5t-26.5 39.5t-39.5 26.5t-47.5 9.5q-26 0 -48 -9.5t-39 -26.5t-26.5 -39.5t-9.5 -47.5t9.5 -47.5t26.5 -39t39 -26.5t48 -10q25 0 47.5 10t39.5 26.5 t26.5 39t9.5 47.5z" />
<glyph unicode="&#xe6;" horiz-adv-x="1366" d="M1320 771q0 -65 -35.5 -125t-104.5 -108t-170 -81.5t-231 -43.5q-4 -27 -6 -57t-2 -60q0 -40 8 -78t29 -68t57 -48t91 -18q38 0 73.5 8.5t67.5 22t62 31.5t58 38l29 -42q-31 -27 -70 -55.5t-84 -52.5t-96 -39t-106 -15q-50 0 -90.5 9t-73 29t-58.5 52t-47 77 q-37 -36 -77 -66.5t-80.5 -53t-81 -35.5t-78.5 -13q-50 0 -94 23t-76.5 66.5t-51.5 106.5t-19 142q0 129 41.5 246t115 206.5t175.5 142t223 52.5q62 0 122 -21.5t101 -51.5q44 35 102 54.5t134 19.5q115 0 179 -52.5t64 -141.5zM391 104q27 0 55.5 10t56 26t53.5 36t47 40 q-2 14 -5 40t-3 53q0 140 40.5 268t131.5 242q-35 26 -82 46t-94 20q-49 0 -94 -23t-83.5 -63t-70.5 -93.5t-54.5 -114.5t-35 -126.5t-12.5 -129.5q0 -59 11.5 -102.5t32 -72t47.5 -42.5t59 -14zM1145 774q0 53 -24.5 83.5t-72.5 30.5q-57 0 -99.5 -37t-74 -96.5t-52.5 -133 t-33 -145.5q93 9 160 35.5t110.5 66.5t64.5 90t21 106z" />
<glyph unicode="&#xe7;" horiz-adv-x="909" d="M63 0zM774 142q-25 -23 -63.5 -51t-87 -52.5t-105.5 -41.5t-118 -17q-84 0 -147.5 25.5t-105.5 72t-63 110.5t-21 142q0 101 22.5 187.5t61.5 157t91.5 124.5t112.5 91t124.5 56t128.5 19q38 0 79 -4.5t79 -12t70.5 -17t54.5 -18.5l-45 -262h-55l-16 174q-29 29 -70 46 t-98 17q-71 0 -136.5 -40t-115.5 -112.5t-80.5 -173.5t-30.5 -222q0 -68 14.5 -116.5t41.5 -79.5t65 -45.5t85 -14.5q85 0 159 29t139 71zM561 -212q0 -98 -71.5 -156.5t-207.5 -58.5q-35 0 -71 6t-62 15l23 75q9 -3 21 -6t25.5 -5t27 -3.5t23.5 -1.5q61 0 99 27.5t38 84.5 q0 28 -12.5 48t-31.5 33t-43 19.5t-46 8.5l68 153h86l-33 -82q80 -8 123.5 -49t43.5 -108z" />
<glyph unicode="&#xe8;" horiz-adv-x="909" d="M63 0zM863 760q0 -65 -41 -123t-119.5 -104.5t-194 -78t-264.5 -41.5q-1 -9 -2.5 -28t-1.5 -45q0 -49 9.5 -95t33.5 -82t65 -57.5t104 -21.5q90 0 166 30.5t142 69.5l29 -42q-32 -27 -75 -56t-93.5 -52.5t-106.5 -38.5t-114 -15q-85 0 -148 24.5t-105 69.5t-63 110 t-21 146q0 89 20 170.5t56 152t86 128t108.5 98.5t124 63.5t133.5 22.5q64 0 114.5 -15.5t85.5 -43t53.5 -65t18.5 -81.5zM252 476q109 8 191 34.5t136.5 65t81.5 86t27 98.5q0 56 -30.5 92t-88.5 36q-59 0 -111 -37.5t-93.5 -96.5t-70.5 -132.5t-42 -145.5zM673 1118 l-307 268l6 37h203l158 -272l-5 -33h-55z" />
<glyph unicode="&#xe9;" horiz-adv-x="909" d="M63 0zM863 760q0 -65 -41 -123t-119.5 -104.5t-194 -78t-264.5 -41.5q-1 -9 -2.5 -28t-1.5 -45q0 -49 9.5 -95t33.5 -82t65 -57.5t104 -21.5q90 0 166 30.5t142 69.5l29 -42q-32 -27 -75 -56t-93.5 -52.5t-106.5 -38.5t-114 -15q-85 0 -148 24.5t-105 69.5t-63 110 t-21 146q0 89 20 170.5t56 152t86 128t108.5 98.5t124 63.5t133.5 22.5q64 0 114.5 -15.5t85.5 -43t53.5 -65t18.5 -81.5zM252 476q109 8 191 34.5t136.5 65t81.5 86t27 98.5q0 56 -30.5 92t-88.5 36q-59 0 -111 -37.5t-93.5 -96.5t-70.5 -132.5t-42 -145.5zM521 1118l5 33 l244 272h213l-6 -37l-401 -268h-55z" />
<glyph unicode="&#xea;" horiz-adv-x="909" d="M63 0zM863 760q0 -65 -41 -123t-119.5 -104.5t-194 -78t-264.5 -41.5q-1 -9 -2.5 -28t-1.5 -45q0 -49 9.5 -95t33.5 -82t65 -57.5t104 -21.5q90 0 166 30.5t142 69.5l29 -42q-32 -27 -75 -56t-93.5 -52.5t-106.5 -38.5t-114 -15q-85 0 -148 24.5t-105 69.5t-63 110 t-21 146q0 89 20 170.5t56 152t86 128t108.5 98.5t124 63.5t133.5 22.5q64 0 114.5 -15.5t85.5 -43t53.5 -65t18.5 -81.5zM252 476q109 8 191 34.5t136.5 65t81.5 86t27 98.5q0 56 -30.5 92t-88.5 36q-59 0 -111 -37.5t-93.5 -96.5t-70.5 -132.5t-42 -145.5zM315 1118l5 33 l235 273h213l139 -273l-5 -33h-47l-206 183l-270 -183h-64z" />
<glyph unicode="&#xeb;" horiz-adv-x="909" d="M63 0zM863 760q0 -65 -41 -123t-119.5 -104.5t-194 -78t-264.5 -41.5q-1 -9 -2.5 -28t-1.5 -45q0 -49 9.5 -95t33.5 -82t65 -57.5t104 -21.5q90 0 166 30.5t142 69.5l29 -42q-32 -27 -75 -56t-93.5 -52.5t-106.5 -38.5t-114 -15q-85 0 -148 24.5t-105 69.5t-63 110 t-21 146q0 89 20 170.5t56 152t86 128t108.5 98.5t124 63.5t133.5 22.5q64 0 114.5 -15.5t85.5 -43t53.5 -65t18.5 -81.5zM252 476q109 8 191 34.5t136.5 65t81.5 86t27 98.5q0 56 -30.5 92t-88.5 36q-59 0 -111 -37.5t-93.5 -96.5t-70.5 -132.5t-42 -145.5zM925 1231 q0 -42 -28 -71.5t-70 -29.5q-21 0 -39 8t-31.5 22t-21.5 32t-8 39q0 42 29 71t71 29t70 -29t28 -71zM569 1231q0 -42 -28 -71.5t-70 -29.5q-21 0 -39 8t-32 22t-22 32t-8 39t8 39t22 31.5t32 21.5t39 8q42 0 70 -29t28 -71z" />
<glyph unicode="&#xec;" horiz-adv-x="569" d="M109 0zM287 70l157 -25l-8 -45h-327l153 870l-129 25l8 45h299zM430 1118l-307 268l6 37h203l158 -272l-5 -33h-55z" />
<glyph unicode="&#xed;" horiz-adv-x="569" d="M109 0zM287 70l157 -25l-8 -45h-327l153 870l-129 25l8 45h299zM259 1118l5 33l244 272h213l-6 -37l-401 -268h-55z" />
<glyph unicode="&#xee;" horiz-adv-x="569" d="M67 0zM287 70l157 -25l-8 -45h-327l153 870l-129 25l8 45h299zM67 1118l5 33l235 273h213l139 -273l-5 -33h-47l-206 183l-270 -183h-64z" />
<glyph unicode="&#xef;" horiz-adv-x="569" d="M98 0zM287 70l157 -25l-8 -45h-327l153 870l-129 25l8 45h299zM653 1231q0 -42 -28 -71.5t-70 -29.5q-21 0 -39 8t-31.5 22t-21.5 32t-8 39q0 42 29 71t71 29t70 -29t28 -71zM297 1231q0 -42 -28 -71.5t-70 -29.5q-21 0 -39 8t-32 22t-22 32t-8 39t8 39t22 31.5t32 21.5 t39 8q42 0 70 -29t28 -71z" />
<glyph unicode="&#xf0;" d="M959 658q0 -143 -30 -267.5t-94.5 -216.5t-166 -145.5t-245.5 -53.5q-81 0 -148.5 25.5t-116 74t-75 117.5t-26.5 156q0 111 37.5 212t106.5 178.5t167.5 123t221.5 45.5q57 0 103 -12.5t88 -35.5q-5 35 -14 75.5t-25 82.5t-39 83.5t-55 77.5l-326 -172l17 96l251 131 q-41 34 -89.5 62t-109.5 48l14 78q82 -21 155 -53.5t136 -79.5l294 156l-17 -94l-214 -115q51 -45 88.5 -109t62 -139.5t37 -159.5t12.5 -169zM567 825q-66 0 -126 -37t-105 -103t-72 -156.5t-27 -197.5q0 -131 53.5 -201.5t147.5 -70.5q66 0 126 37t106 102.5t73.5 155 t27.5 194.5q0 136 -52.5 206.5t-151.5 70.5z" />
<glyph unicode="&#xf1;" d="M73 0zM755 748q0 45 -24 73t-76 28q-42 0 -86 -19.5t-85 -50.5t-76 -70.5t-59 -78.5l-110 -630h-166l153 871l-118 25l8 45h278l-27 -192q38 49 79.5 89t86 68t91 43.5t94.5 15.5q46 0 83.5 -12t64 -38t41 -66t14.5 -95q0 -12 -2.5 -32.5t-6.5 -44.5t-8 -49.5t-8 -47.5 l-88 -511l131 -24l-8 -45h-301l102 582q4 22 8 46t7.5 47t5.5 42t2 31zM740 1119q-48 0 -84.5 21.5t-68 48t-61 48t-62.5 21.5q-31 0 -51 -10.5t-33.5 -28t-21.5 -38.5t-15 -42h-52q12 47 30 90.5t46 77.5t68 54t94 20q48 0 85 -21.5t68.5 -48t61 -48t61.5 -21.5 q30 0 50 10.5t33.5 27.5t22 38t15.5 42h52q-12 -47 -30 -90t-46 -77t-68 -54t-94 -20z" />
<glyph unicode="&#xf2;" d="M61 0zM237 340q0 -135 52.5 -206.5t146.5 -71.5q69 0 132.5 41.5t112 114t78 172t29.5 216.5q0 138 -52.5 209.5t-150.5 71.5q-68 0 -131 -41t-111 -113.5t-77 -173t-29 -219.5zM427 -20q-81 0 -148.5 27t-116 78t-75 124t-26.5 165q0 117 37.5 224t107 188.5t168.5 130 t223 48.5q81 0 148.5 -27t116 -78t75 -124t26.5 -165q0 -117 -37.5 -224t-107 -188.5t-168.5 -130t-223 -48.5zM693 1118l-307 268l6 37h203l158 -272l-5 -33h-55z" />
<glyph unicode="&#xf3;" d="M61 0zM237 340q0 -135 52.5 -206.5t146.5 -71.5q69 0 132.5 41.5t112 114t78 172t29.5 216.5q0 138 -52.5 209.5t-150.5 71.5q-68 0 -131 -41t-111 -113.5t-77 -173t-29 -219.5zM427 -20q-81 0 -148.5 27t-116 78t-75 124t-26.5 165q0 117 37.5 224t107 188.5t168.5 130 t223 48.5q81 0 148.5 -27t116 -78t75 -124t26.5 -165q0 -117 -37.5 -224t-107 -188.5t-168.5 -130t-223 -48.5zM526 1118l5 33l244 272h213l-6 -37l-401 -268h-55z" />
<glyph unicode="&#xf4;" d="M61 0zM237 340q0 -135 52.5 -206.5t146.5 -71.5q69 0 132.5 41.5t112 114t78 172t29.5 216.5q0 138 -52.5 209.5t-150.5 71.5q-68 0 -131 -41t-111 -113.5t-77 -173t-29 -219.5zM427 -20q-81 0 -148.5 27t-116 78t-75 124t-26.5 165q0 117 37.5 224t107 188.5t168.5 130 t223 48.5q81 0 148.5 -27t116 -78t75 -124t26.5 -165q0 -117 -37.5 -224t-107 -188.5t-168.5 -130t-223 -48.5zM323 1118l5 33l235 273h213l139 -273l-5 -33h-47l-206 183l-270 -183h-64z" />
<glyph unicode="&#xf5;" d="M61 0zM237 340q0 -135 52.5 -206.5t146.5 -71.5q69 0 132.5 41.5t112 114t78 172t29.5 216.5q0 138 -52.5 209.5t-150.5 71.5q-68 0 -131 -41t-111 -113.5t-77 -173t-29 -219.5zM427 -20q-81 0 -148.5 27t-116 78t-75 124t-26.5 165q0 117 37.5 224t107 188.5t168.5 130 t223 48.5q81 0 148.5 -27t116 -78t75 -124t26.5 -165q0 -117 -37.5 -224t-107 -188.5t-168.5 -130t-223 -48.5zM763 1119q-48 0 -84.5 21.5t-68 48t-61 48t-62.5 21.5q-31 0 -51 -10.5t-33.5 -28t-21.5 -38.5t-15 -42h-52q12 47 30 90.5t46 77.5t68 54t94 20q48 0 85 -21.5 t68.5 -48t61 -48t61.5 -21.5q30 0 50 10.5t33.5 27.5t22 38t15.5 42h52q-12 -47 -30 -90t-46 -77t-68 -54t-94 -20z" />
<glyph unicode="&#xf6;" d="M61 0zM237 340q0 -135 52.5 -206.5t146.5 -71.5q69 0 132.5 41.5t112 114t78 172t29.5 216.5q0 138 -52.5 209.5t-150.5 71.5q-68 0 -131 -41t-111 -113.5t-77 -173t-29 -219.5zM427 -20q-81 0 -148.5 27t-116 78t-75 124t-26.5 165q0 117 37.5 224t107 188.5t168.5 130 t223 48.5q81 0 148.5 -27t116 -78t75 -124t26.5 -165q0 -117 -37.5 -224t-107 -188.5t-168.5 -130t-223 -48.5zM926 1231q0 -42 -28 -71.5t-70 -29.5q-21 0 -39 8t-31.5 22t-21.5 32t-8 39q0 42 29 71t71 29t70 -29t28 -71zM570 1231q0 -42 -28 -71.5t-70 -29.5q-21 0 -39 8 t-32 22t-22 32t-8 39t8 39t22 31.5t32 21.5t39 8q42 0 70 -29t28 -71z" />
<glyph unicode="&#xf7;" horiz-adv-x="1124" d="M688 1063q0 -40 -28 -68t-68 -28q-41 0 -69 28t-28 68t28 68t69 28q40 0 68 -28t28 -68zM688 297q0 -40 -28 -68t-68 -28q-41 0 -69 28t-28 68t28 68t69 28q40 0 68 -28t28 -68zM1069 731v-102h-953v102h953z" />
<glyph unicode="&#xf8;" d="M427 -20q-136 0 -228 72l-119 -136h-107l169 192q-39 51 -60 117.5t-21 148.5q0 117 37.5 224t107 188.5t168.5 130t223 48.5q138 0 231 -75l117 132h104l-165 -189q38 -50 58.5 -115.5t20.5 -146.5q0 -117 -37.5 -224t-107 -188.5t-168.5 -130t-223 -48.5zM579 890 q-69 0 -130.5 -40t-107.5 -111.5t-73 -170t-27 -214.5q0 -68 12 -120l489 558q-52 98 -163 98zM783 590q0 63 -11 116l-487 -556q52 -91 157 -91q69 0 130.5 40t108.5 111.5t74.5 168.5t27.5 211z" />
<glyph unicode="&#xf9;" d="M102 0zM268 193q0 -45 24 -73t76 -28q42 0 86 19t84.5 49.5t75.5 69.5t59 78l111 632h166l-153 -870l118 -25l-8 -45h-278l27 193q-38 -49 -79.5 -89t-86 -68.5t-91 -44t-94.5 -15.5q-46 0 -83.5 12t-64 38t-41 65.5t-14.5 95.5q0 12 2.5 32t6 44t8 49.5t8.5 48.5l88 510 l-111 24l8 45h281l-102 -581q-4 -22 -8 -46t-7.5 -47t-5.5 -42t-2 -31zM666 1118l-307 268l6 37h203l158 -272l-5 -33h-55z" />
<glyph unicode="&#xfa;" d="M102 0zM268 193q0 -45 24 -73t76 -28q42 0 86 19t84.5 49.5t75.5 69.5t59 78l111 632h166l-153 -870l118 -25l-8 -45h-278l27 193q-38 -49 -79.5 -89t-86 -68.5t-91 -44t-94.5 -15.5q-46 0 -83.5 12t-64 38t-41 65.5t-14.5 95.5q0 12 2.5 32t6 44t8 49.5t8.5 48.5l88 510 l-111 24l8 45h281l-102 -581q-4 -22 -8 -46t-7.5 -47t-5.5 -42t-2 -31zM495 1118l5 33l244 272h213l-6 -37l-401 -268h-55z" />
<glyph unicode="&#xfb;" d="M102 0zM268 193q0 -45 24 -73t76 -28q42 0 86 19t84.5 49.5t75.5 69.5t59 78l111 632h166l-153 -870l118 -25l-8 -45h-278l27 193q-38 -49 -79.5 -89t-86 -68.5t-91 -44t-94.5 -15.5q-46 0 -83.5 12t-64 38t-41 65.5t-14.5 95.5q0 12 2.5 32t6 44t8 49.5t8.5 48.5l88 510 l-111 24l8 45h281l-102 -581q-4 -22 -8 -46t-7.5 -47t-5.5 -42t-2 -31zM312 1118l5 33l235 273h213l139 -273l-5 -33h-47l-206 183l-270 -183h-64z" />
<glyph unicode="&#xfc;" d="M102 0zM268 193q0 -45 24 -73t76 -28q42 0 86 19t84.5 49.5t75.5 69.5t59 78l111 632h166l-153 -870l118 -25l-8 -45h-278l27 193q-38 -49 -79.5 -89t-86 -68.5t-91 -44t-94.5 -15.5q-46 0 -83.5 12t-64 38t-41 65.5t-14.5 95.5q0 12 2.5 32t6 44t8 49.5t8.5 48.5l88 510 l-111 24l8 45h281l-102 -581q-4 -22 -8 -46t-7.5 -47t-5.5 -42t-2 -31zM914 1231q0 -42 -28 -71.5t-70 -29.5q-21 0 -39 8t-31.5 22t-21.5 32t-8 39q0 42 29 71t71 29t70 -29t28 -71zM558 1231q0 -42 -28 -71.5t-70 -29.5q-21 0 -39 8t-32 22t-22 32t-8 39t8 39t22 31.5 t32 21.5t39 8q42 0 70 -29t28 -71z" />
<glyph unicode="&#xfd;" horiz-adv-x="909" d="M0 0zM52 940h256l145 -732l235 406q33 58 48.5 106.5t15.5 86.5q0 37 -21 59t-45 29l8 45h190q9 -8 17.5 -25t8.5 -38q0 -32 -17 -84.5t-66 -135.5l-396 -667q-59 -100 -111.5 -180t-105 -136t-110 -86t-126.5 -30q-26 0 -45.5 1t-36 3.5t-32.5 5.5t-35 8l37 203h45 l16 -96q25 -23 82 -23q43 0 83.5 25t77 64.5t68 87.5t56.5 93l45 82l-183 858l-112 25zM432 1118l5 33l244 272h213l-6 -37l-401 -268h-55z" />
<glyph unicode="&#xfe;" d="M383 940l-28 -152q89 86 169.5 131.5t155.5 45.5q60 0 111.5 -21.5t89.5 -63.5t59.5 -104.5t21.5 -144.5q0 -86 -19.5 -167.5t-55.5 -154t-88 -133t-116 -104t-140 -68t-161 -24.5q-20 0 -44 1.5t-47 4.5t-44 7t-36 9q-1 -12 -3 -27.5t-4 -32t-4.5 -30.5t-3.5 -23 l-46 -254l160 -24l-8 -47h-446l8 47l123 24l303 1717l-133 24l8 45h303zM233 107q36 -29 81.5 -38.5t84.5 -9.5q62 0 114.5 23.5t95 64.5t75 95t54.5 114.5t33.5 124.5t11.5 124q0 63 -14.5 107.5t-39 73t-56.5 41.5t-66 13q-27 0 -60 -10t-68 -28t-70 -43.5t-67 -57.5z" />
<glyph unicode="&#xff;" horiz-adv-x="909" d="M0 0zM52 940h256l145 -732l235 406q33 58 48.5 106.5t15.5 86.5q0 37 -21 59t-45 29l8 45h190q9 -8 17.5 -25t8.5 -38q0 -32 -17 -84.5t-66 -135.5l-396 -667q-59 -100 -111.5 -180t-105 -136t-110 -86t-126.5 -30q-26 0 -45.5 1t-36 3.5t-32.5 5.5t-35 8l37 203h45 l16 -96q25 -23 82 -23q43 0 83.5 25t77 64.5t68 87.5t56.5 93l45 82l-183 858l-112 25zM867 1231q0 -42 -28 -71.5t-70 -29.5q-21 0 -39 8t-31.5 22t-21.5 32t-8 39q0 42 29 71t71 29t70 -29t28 -71zM511 1231q0 -42 -28 -71.5t-70 -29.5q-21 0 -39 8t-32 22t-22 32t-8 39 t8 39t22 31.5t32 21.5t39 8q42 0 70 -29t28 -71z" />
<glyph unicode="&#x131;" horiz-adv-x="569" d="M287 70l157 -25l-8 -45h-327l153 870l-129 25l8 45h299z" />
<glyph unicode="&#x152;" horiz-adv-x="1933" d="M642 -6q-131 0 -231.5 37t-169 104.5t-103.5 163.5t-35 215q0 169 51.5 320.5t150 265.5t241 181t325.5 67q35 0 72 -1t72 -2.5t66 -2.5t55 -1h764l-57 -321h-66l6 217q-31 4 -76 7t-92 4.5t-88.5 2t-64.5 0.5h-219l-93 -524h362l60 160h64l-73 -412h-64l-2 162h-362 l-97 -547h264q62 0 117 1.5t99.5 3.5t76.5 5t48 6l101 248h66l-82 -354h-811q-13 -1 -44.5 -2t-71 -2t-82 -1.5t-77.5 -0.5zM655 65q54 0 106 6.5t83 15.5l204 1165q-22 8 -68.5 16t-121.5 8q-92 0 -169 -36t-138.5 -96t-108 -138.5t-77.5 -164.5t-46.5 -173.5t-15.5 -164.5 q0 -105 24 -187t69 -137.5t110.5 -84.5t148.5 -29z" />
<glyph unicode="&#x153;" horiz-adv-x="1366" d="M341 -20q-69 0 -121 24t-87.5 69t-53.5 109.5t-18 145.5q0 127 34 242.5t98 203t156 139.5t208 52q86 0 143.5 -39t91.5 -106q21 29 51 55t67.5 46t83 32t98.5 12q106 0 167 -49t61 -139q0 -65 -31 -126t-94.5 -110.5t-160 -83.5t-226.5 -44q-1 -5 -3 -20.5t-4.5 -35.5 t-4 -43t-1.5 -44q0 -31 4.5 -64t21 -60t48.5 -44.5t87 -17.5q38 0 73.5 8.5t67.5 22t62 31.5t58 38l29 -42q-30 -27 -68.5 -56t-83.5 -52.5t-94.5 -38.5t-101.5 -15q-91 0 -150 38.5t-85 112.5q-59 -70 -140.5 -110.5t-181.5 -40.5zM360 62q39 0 76.5 23.5t71 65t62 98.5 t49.5 124t32.5 142t11.5 152q0 49 -8 89.5t-24.5 69.5t-41 45t-57.5 16q-59 0 -112.5 -51.5t-94.5 -136.5t-65.5 -194.5t-24.5 -225.5q0 -48 7.5 -88t22.5 -68.5t38.5 -44.5t56.5 -16zM818 476q94 9 157.5 36t102 67t55 88.5t16.5 99.5q0 60 -23 90.5t-58 30.5 q-45 0 -85 -34.5t-72.5 -91.5t-56 -131.5t-36.5 -154.5z" />
<glyph unicode="&#x178;" horiz-adv-x="1139" d="M117 0zM688 528l-79 -448l209 -27l-10 -53h-619l10 53l217 27l78 442l-230 740l-147 26l10 53h547l-10 -53l-194 -26l188 -627l393 627l-176 26l10 53h436l-10 -53l-151 -26zM1059 1596q0 -42 -28 -71.5t-70 -29.5q-21 0 -39 8t-31.5 22t-21.5 32t-8 39q0 42 29 71t71 29 t70 -29t28 -71zM703 1596q0 -42 -28 -71.5t-70 -29.5q-21 0 -39 8t-32 22t-22 32t-8 39t8 39t22 31.5t32 21.5t39 8q42 0 70 -29t28 -71z" />
<glyph unicode="&#x2c6;" horiz-adv-x="682" d="M174 1118l5 33l235 273h213l139 -273l-5 -33h-47l-206 183l-270 -183h-64z" />
<glyph unicode="&#x2da;" horiz-adv-x="682" d="M675 1277q0 -42 -16 -79t-43.5 -64.5t-64.5 -43.5t-79 -16t-79 16t-64.5 43.5t-43.5 64.5t-16 79t16 79t43.5 64.5t64.5 43.5t79 16t79 -16t64.5 -43.5t43.5 -64.5t16 -79zM595 1277q0 25 -9.5 47.5t-26.5 39.5t-39.5 26.5t-47.5 9.5q-26 0 -48 -9.5t-39 -26.5 t-26.5 -39.5t-9.5 -47.5t9.5 -47.5t26.5 -39t39 -26.5t48 -10q25 0 47.5 10t39.5 26.5t26.5 39t9.5 47.5z" />
<glyph unicode="&#x2dc;" horiz-adv-x="682" d="M572 1119q-48 0 -84.5 21.5t-68 48t-61 48t-62.5 21.5q-31 0 -51 -10.5t-33.5 -28t-21.5 -38.5t-15 -42h-52q12 47 30 90.5t46 77.5t68 54t94 20q48 0 85 -21.5t68.5 -48t61 -48t61.5 -21.5q30 0 50 10.5t33.5 27.5t22 38t15.5 42h52q-12 -47 -30 -90t-46 -77t-68 -54 t-94 -20z" />
<glyph unicode="&#x2000;" horiz-adv-x="879" />
<glyph unicode="&#x2001;" horiz-adv-x="1758" />
<glyph unicode="&#x2002;" horiz-adv-x="879" />
<glyph unicode="&#x2003;" horiz-adv-x="1758" />
<glyph unicode="&#x2004;" horiz-adv-x="586" />
<glyph unicode="&#x2005;" horiz-adv-x="439" />
<glyph unicode="&#x2006;" horiz-adv-x="293" />
<glyph unicode="&#x2007;" horiz-adv-x="293" />
<glyph unicode="&#x2008;" horiz-adv-x="219" />
<glyph unicode="&#x2009;" horiz-adv-x="351" />
<glyph unicode="&#x200a;" horiz-adv-x="97" />
<glyph unicode="&#x2010;" horiz-adv-x="682" d="M76 406v153h532v-153h-532z" />
<glyph unicode="&#x2011;" horiz-adv-x="682" d="M76 406v153h532v-153h-532z" />
<glyph unicode="&#x2012;" horiz-adv-x="682" d="M76 406v153h532v-153h-532z" />
<glyph unicode="&#x2013;" d="M1038 528v-102h-1052v102h1052z" />
<glyph unicode="&#x2014;" horiz-adv-x="1821" d="M1831 528v-102h-1845v102h1845z" />
<glyph unicode="&#x2018;" horiz-adv-x="682" d="M302 1005q0 59 18 113t56.5 100t98 83t142.5 61v-77q-91 -29 -138.5 -71t-47.5 -97q0 -28 19.5 -42t43 -28.5t43 -36t19.5 -63.5q0 -54 -34 -82.5t-87 -28.5q-28 0 -52.5 10.5t-42.5 31.5t-28 53t-10 74z" />
<glyph unicode="&#x2019;" horiz-adv-x="682" d="M620 1193q0 -59 -18 -113t-56.5 -100t-98 -83t-142.5 -61v77q91 29 138.5 71t47.5 97q0 28 -19.5 42t-43 28.5t-43 36t-19.5 63.5q0 54 34 82.5t87 28.5q28 0 52.5 -10.5t42.5 -31.5t28 -53t10 -74z" />
<glyph unicode="&#x201a;" horiz-adv-x="682" d="M483 42q0 -59 -18 -113t-56.5 -100t-98 -83t-142.5 -61v77q91 29 138.5 71t47.5 97q0 28 -19.5 42t-43 28.5t-43 36t-19.5 63.5q0 54 34 82.5t87 28.5q28 0 52.5 -10.5t42.5 -31.5t28 -53t10 -74z" />
<glyph unicode="&#x201c;" horiz-adv-x="1139" d="M713 1005q0 59 18 113t56.5 100t98 83t142.5 61v-77q-91 -29 -138.5 -71t-47.5 -97q0 -28 19.5 -42t43 -28.5t43 -36t19.5 -63.5q0 -54 -34 -82.5t-87 -28.5q-28 0 -52.5 10.5t-42.5 31.5t-28 53t-10 74zM300 1005q0 59 18 113t56.5 100t98 83t142.5 61v-77 q-91 -29 -138.5 -71t-47.5 -97q0 -28 19.5 -42t43 -28.5t43 -36t19.5 -63.5q0 -54 -34 -82.5t-87 -28.5q-28 0 -52.5 10.5t-42.5 31.5t-28 53t-10 74z" />
<glyph unicode="&#x201d;" horiz-adv-x="1139" d="M620 1193q0 -59 -18 -113t-56.5 -100t-98 -83t-142.5 -61v77q91 29 138.5 71t47.5 97q0 28 -19.5 42t-43 28.5t-43 36t-19.5 63.5q0 54 34 82.5t87 28.5q28 0 52.5 -10.5t42.5 -31.5t28 -53t10 -74zM1033 1193q0 -59 -18 -113t-56.5 -100t-98 -83t-142.5 -61v77 q91 29 138.5 71t47.5 97q0 28 -19.5 42t-43 28.5t-43 36t-19.5 63.5q0 54 34 82.5t87 28.5q28 0 52.5 -10.5t42.5 -31.5t28 -53t10 -74z" />
<glyph unicode="&#x201e;" horiz-adv-x="1139" d="M398 42q0 -59 -18 -113t-56.5 -100t-98 -83t-142.5 -61v77q91 29 138.5 71t47.5 97q0 28 -19.5 42t-43 28.5t-43 36t-19.5 63.5q0 54 34 82.5t87 28.5q28 0 52.5 -10.5t42.5 -31.5t28 -53t10 -74zM811 42q0 -59 -18 -113t-56.5 -100t-98 -83t-142.5 -61v77 q91 29 138.5 71t47.5 97q0 28 -19.5 42t-43 28.5t-43 36t-19.5 63.5q0 54 34 82.5t87 28.5q28 0 52.5 -10.5t42.5 -31.5t28 -53t10 -74z" />
<glyph unicode="&#x2022;" horiz-adv-x="717" d="M623 678q0 -51 -19 -95.5t-52 -77.5t-77.5 -52t-95.5 -19t-95 19t-77 52t-52 77.5t-19 95.5t19 95.5t52 77.5t77 52t95 19t95.5 -19t77.5 -52t52 -77.5t19 -95.5z" />
<glyph unicode="&#x2026;" horiz-adv-x="1821" d="M310 92q0 -25 -9.5 -47t-25.5 -38.5t-38.5 -26t-47.5 -9.5q-26 0 -48 9.5t-38 26t-25.5 38.5t-9.5 47t9.5 47.5t25.5 38.5t38 25.5t48 9.5q25 0 47.5 -9.5t38.5 -25.5t25.5 -38.5t9.5 -47.5zM996 92q0 -25 -9.5 -47t-25.5 -38.5t-38.5 -26t-47.5 -9.5q-26 0 -48 9.5 t-38 26t-25.5 38.5t-9.5 47t9.5 47.5t25.5 38.5t38 25.5t48 9.5q25 0 47.5 -9.5t38.5 -25.5t25.5 -38.5t9.5 -47.5zM1682 92q0 -25 -9.5 -47t-25.5 -38.5t-38.5 -26t-47.5 -9.5q-26 0 -48 9.5t-38 26t-25.5 38.5t-9.5 47t9.5 47.5t25.5 38.5t38 25.5t48 9.5q25 0 47.5 -9.5 t38.5 -25.5t25.5 -38.5t9.5 -47.5z" />
<glyph unicode="&#x202f;" horiz-adv-x="351" />
<glyph unicode="&#x2039;" horiz-adv-x="682" d="M122 496l417 356h61l-320 -395l183 -383h-61l-291 356z" />
<glyph unicode="&#x203a;" horiz-adv-x="682" d="M561 430l-418 -356h-61l322 396l-185 382h61l292 -356z" />
<glyph unicode="&#x2044;" horiz-adv-x="342" d="M-260 0h-102l964 1341h100z" />
<glyph unicode="&#x205f;" horiz-adv-x="439" />
<glyph unicode="&#x20ac;" d="M194 829q78 269 229 398t362 129q50 0 92.5 -4t81 -10.5t74 -16t71.5 -20.5l-41 -252h-68l4 133q-38 43 -92.5 66.5t-114.5 23.5q-66 0 -123 -23.5t-106 -77t-89.5 -138.5t-72.5 -208h350l-14 -81h-355q-9 -37 -17 -81t-13 -83h356l-15 -82h-350q-2 -27 -3 -52t-1 -49 q0 -174 63.5 -259t176.5 -85q82 0 148 30t107 71l53 159h67l-53 -274q-74 -29 -159 -46t-185 -17q-99 0 -177.5 31t-133 91t-83.5 146.5t-29 197.5q0 14 0.5 28t1.5 28h-112l15 82h105q4 36 11.5 79.5t18.5 84.5h-106l14 81h112z" />
<glyph unicode="&#x2122;" horiz-adv-x="2007" d="M284 537v43l127 16v684h-31q-78 0 -126.5 -3.5t-69.5 -8.5l-17 -125h-41v198h709v-198h-41l-16 125q-22 5 -76 7.5t-125 2.5h-29v-682l127 -16v-43h-391zM1410 537h-28l-285 669v-610l109 -16v-43h-285v43l104 16v688l-104 16v41h270l244 -583l264 583h254v-41l-102 -16 v-688l102 -16v-43h-348v43l108 16v608z" />
<glyph unicode="&#xe000;" horiz-adv-x="940" d="M0 940h940v-940h-940v940z" />
<glyph horiz-adv-x="324" d="M0 0z" />
</font>
</defs>
</svg>
